.
Авторизация | Регистрация
Хочешь лучшие торренты? Добавь свой email!
Добавить
» » Уолл-стрит / Wall Street (1987 ) BDRip by msltel | D, P, A | Ремастеринг скачать через торрент бесплатно




    Уолл-стрит / Wall Street (1987 ) BDRip by msltel | D, P, A | Ремастеринг скачать через торрент бесплатно

    Опубликовал: Админ | Дата: 27-02-2015, 11:09 | Просмотров: 251



    Русское название: Уолл-стрит (Ремастеринг)
    Русское название в мировом прокате: Wall Street (Remastered)
    Создали в: 1987
    Категория жанра: Драма, криминал
    Снималось в: США, 20th Century Fox Film Corporation, Amercent Films, American Entertainment Partners L.P.
    Главный режиссер: Оливер Стоун
    Актеры: Майкл Дуглас, Чарли Шин, Дэрил Ханна, Мартин Шин, Хэл Холбрук, Теренс Стэмп, Сол Рубинек, Уильям Дж. Найт, Тамара Тюни, Франклин Ковер, Чак Пфайфер, Джон К. МакГинли, Джеймс Карен, Лесли Лайлс, Фэйт Гир, Фрэнк Адонис, Джон Каподиче, Сузен Муракоши, Дэни Клейн, Франсуа Джиродэй, Джош Мостел, Энн Тэлман, Лиза Зебро, Мартин Шерман, Моника ван Вурен, Дерек Кейр, Андреа Томпсон, Лорен Том, Джордж Блюменталь, Джордж Влахос, Лилиан Монтевечи, Майкл О’Донохью, Пири МакДональд, Томас Андерсон, Шон Янг, Сесилия Пек, Пол Гилфойл, Энни МакЭнро, Джек Пруэтт, Рональд Ямамото, Джеймс Спэйдер

    Сюжет фильма: Бад Фокс, молодой и предельно амбициозный брокер, живёт в сердце мира, где у всего есть своя цена, всё можно купить и продать. Он твердо намерен достичь вершин, стать лучшим. Стремясь получить поддержку, он добивается знакомства со старым хищником Гордоном Гекко, и тот открывает ему тайны мастерства. Быстрые деньги, роскошные женщины, все удовольствия мира в руках у Бада, а бурлящие вокруг финансовые потоки несут ещё больше денег, больше возможностей, больше искушений. Нужно только настичь эту добычу...

    Качество фильма: BDRip
    Размер скачиваемого торрента: 4.11 ГБ
    Время просмотра: 02:05:43

    Информация о видео: XviD, 1900 Кбит/с, 720x384
    Информация о звуке 1: русский, 48 kHz, AC3, 2 ch, 192 kbps avg, Дублированный, Ленфильм
    Информация о звуке 2: русский, 48 kHz, AC3, 6 ch, 448 kbps avg, Профессиональный многоголосый, BD EUR
    Информация о звуке 3: русский, 48 kHz, AC3, 2 ch, 192 kbps avg, Профессиональный многоголосый, НТВ

    Внешние файлы
    Информация о звуке: русский, 48 kHz, AC3, 2 ch, 192 kbps avg, Профессиональный многоголосый
    Информация о звуке: русский, 48 kHz, AC3, 2 ch, 192 kbps avg, Авторский, Леонид Володарский
    Информация о звуке: русский, 48 kHz, AC3, 2 ch, 192 kbps avg, Авторский, Юрий Живов
    Информация о звуке: русский, 48 kHz, AC3, 6 ch, 448 kbps avg, Авторский, Юрий Немахов
    Информация о звуке: русский, 48 kHz, AC3, 6 ch, 448 kbps avg, Авторский, Михаил Чадов
    Информация о звуке: английский, 48 kHz, AC3, 6 ch, 448 kbps avg, Оригинал
    Субтитры: русские
    Субтитры: английские

    Исходник | Сравнение с исходником



    Награды
    Приз Национального совета обозревателей в США, Серебряная лента и Давид Донателло в Италии лучшему иностранному актёру — все за исполнение главной роли Майклом Дугласом.

    Оскар, 1988 год
    Победитель (1):
    Лучшая мужская роль (Майкл Дуглас)

    Золотой глобус, 1988 год
    Победитель (1):
    Лучшая мужская роль (драма) (Майкл Дуглас)

    Золотая малина, 1988 год
    Победитель (1):
    Худшая женская роль второго плана (Дэрил Ханна)
    MediaInfo
    Общее
    Полное имя : E:VideoUoll.Strit.1987.XviD.BDRipUoll.Strit.1987.AVO.rus.Л.Володарский.ac3
    Формат : AC-3
    Формат/Информация : Audio Coding 3
    Размер файла : 173 Мбайт
    Продолжительность : 2 ч. 5 м.
    Режим общего битрейта : Постоянный
    Общий поток : 192 Кбит/сек

    Аудио
    Формат : AC-3
    Формат/Информация : Audio Coding 3
    Профиль формата : Dolby Digital
    Расширение режима : CM (complete main)
    Параметр Endianness формата : Big
    Продолжительность : 2 ч. 5 м.
    Вид битрейта : Постоянный
    Битрейт : 192 Кбит/сек
    Каналы : 2 канала
    Расположение каналов : Front: L R
    Частота : 48,0 КГц
    Битовая глубина : 16 бит
    Метод сжатия : С потерями
    Размер потока : 173 Мбайт (100%)

    Общее
    Полное имя : E:VideoUoll.Strit.1987.XviD.BDRipUoll.Strit.1987.AVO.rus.М.Чадов.ac3
    Формат : AC-3
    Формат/Информация : Audio Coding 3
    Размер файла : 403 Мбайт
    Продолжительность : 2 ч. 5 м.
    Режим общего битрейта : Постоянный
    Общий поток : 448 Кбит/сек

    Аудио
    Формат : AC-3
    Формат/Информация : Audio Coding 3
    Расширение режима : CM (complete main)
    Параметр Endianness формата : Big
    Продолжительность : 2 ч. 5 м.
    Вид битрейта : Постоянный
    Битрейт : 448 Кбит/сек
    Каналы : 6 каналов
    Расположение каналов : Front: L C R, Side: L R, LFE
    Частота : 48,0 КГц
    Битовая глубина : 16 бит
    Метод сжатия : С потерями
    Размер потока : 403 Мбайт (100%)

    Общее
    Полное имя : E:VideoUoll.Strit.1987.XviD.BDRipUoll.Strit.1987.AVO.rus.Ю.Живов.ac3
    Формат : AC-3
    Формат/Информация : Audio Coding 3
    Размер файла : 173 Мбайт
    Продолжительность : 2 ч. 5 м.
    Режим общего битрейта : Постоянный
    Общий поток : 192 Кбит/сек

    Аудио
    Формат : AC-3
    Формат/Информация : Audio Coding 3
    Профиль формата : Dolby Digital
    Расширение режима : CM (complete main)
    Параметр Endianness формата : Big
    Продолжительность : 2 ч. 5 м.
    Вид битрейта : Постоянный
    Битрейт : 192 Кбит/сек
    Каналы : 2 канала
    Расположение каналов : Front: L R
    Частота : 48,0 КГц
    Битовая глубина : 16 бит
    Метод сжатия : С потерями
    Размер потока : 173 Мбайт (100%)

    Общее
    Полное имя : E:VideoUoll.Strit.1987.XviD.BDRipUoll.Strit.1987.AVO.rus.Ю.Немахов.ac3
    Формат : AC-3
    Формат/Информация : Audio Coding 3
    Размер файла : 403 Мбайт
    Продолжительность : 2 ч. 5 м.
    Режим общего битрейта : Постоянный
    Общий поток : 448 Кбит/сек

    Аудио
    Формат : AC-3
    Формат/Информация : Audio Coding 3
    Расширение режима : CM (complete main)
    Параметр Endianness формата : Big
    Продолжительность : 2 ч. 5 м.
    Вид битрейта : Постоянный
    Битрейт : 448 Кбит/сек
    Каналы : 6 каналов
    Расположение каналов : Front: L C R, Side: L R, LFE
    Частота : 48,0 КГц
    Битовая глубина : 16 бит
    Метод сжатия : С потерями
    Размер потока : 403 Мбайт (100%)

    Общее
    Полное имя : E:VideoUoll.Strit.1987.XviD.BDRipUoll.Strit.1987.eng.srt
    Формат : SubRip
    Размер файла : 150 Кбайт

    Текст
    Формат : SubRip
    Метод сжатия : Без потерь

    Общее
    Полное имя : E:VideoUoll.Strit.1987.XviD.BDRipUoll.Strit.1987.MVO.rus.ac3
    Формат : AC-3
    Формат/Информация : Audio Coding 3
    Размер файла : 173 Мбайт
    Продолжительность : 2 ч. 5 м.
    Режим общего битрейта : Постоянный
    Общий поток : 192 Кбит/сек

    Аудио
    Формат : AC-3
    Формат/Информация : Audio Coding 3
    Профиль формата : Dolby Digital
    Расширение режима : CM (complete main)
    Параметр Endianness формата : Big
    Продолжительность : 2 ч. 5 м.
    Вид битрейта : Постоянный
    Битрейт : 192 Кбит/сек
    Каналы : 2 канала
    Расположение каналов : Front: L R
    Частота : 48,0 КГц
    Битовая глубина : 16 бит
    Метод сжатия : С потерями
    Размер потока : 173 Мбайт (100%)

    Общее
    Полное имя : E:VideoUoll.Strit.1987.XviD.BDRipUoll.Strit.1987.Original.eng.ac3
    Формат : AC-3
    Формат/Информация : Audio Coding 3
    Размер файла : 403 Мбайт
    Продолжительность : 2 ч. 5 м.
    Режим общего битрейта : Постоянный
    Общий поток : 448 Кбит/сек

    Аудио
    Формат : AC-3
    Формат/Информация : Audio Coding 3
    Расширение режима : CM (complete main)
    Параметр Endianness формата : Big
    Продолжительность : 2 ч. 5 м.
    Вид битрейта : Постоянный
    Битрейт : 448 Кбит/сек
    Каналы : 6 каналов
    Расположение каналов : Front: L C R, Side: L R, LFE
    Частота : 48,0 КГц
    Битовая глубина : 16 бит
    Метод сжатия : С потерями
    Размер потока : 403 Мбайт (100%)

    Общее
    Полное имя : E:VideoUoll.Strit.1987.XviD.BDRipUoll.Strit.1987.rus.srt
    Размер файла : 137 Кбайт

    Общее
    Полное имя : E:VideoUoll.Strit.1987.XviD.BDRipUoll.Strit.1987.XviD.BDRip.avi
    Формат : AVI
    Формат/Информация : Audio Video Interleave
    Профиль формата : OpenDML
    Размер файла : 2,42 Гбайт
    Продолжительность : 2 ч. 5 м.
    Общий поток : 2755 Кбит/сек
    Программа кодирования : VirtualDubMod 1.5.10.2 (build 2540/release)
    Библиотека кодирования : VirtualDubMod build 2540/release

    Видео
    Идентификатор : 0
    Формат : MPEG-4 Visual
    Профиль формата : Advanced Simple@L5
    Параметр BVOP формата : 1
    Параметр QPel формата : Нет
    Параметр GMC формата : Без точки перехода
    Параметр матрицы формата : Default (H.263)
    Режим смешивания : Сжатый битовый поток
    Идентификатор кодека : XVID
    Идентификатор кодека/Подсказка : XviD
    Продолжительность : 2 ч. 5 м.
    Битрейт : 1900 Кбит/сек
    Ширина : 720 пикселей
    Высота : 384 пикселя
    Соотношение сторон : 1,85:1
    Частота кадров : 23,976 кадра/сек
    Цветовое пространство : YUV
    Субдискретизация насыщенности : 4:2:0
    Битовая глубина : 8 бит
    Тип развёртки : Прогрессивная
    Метод сжатия : С потерями
    Бит/(Пиксели*Кадры) : 0.287
    Размер потока : 1,67 Гбайт (69%)
    Библиотека кодирования : XviD 1.2.1 (UTC 2008-12-04)

    Аудио #1
    Идентификатор : 1
    Формат : AC-3
    Формат/Информация : Audio Coding 3
    Расширение режима : CM (complete main)
    Параметр Endianness формата : Big
    Идентификатор кодека : 2000
    Продолжительность : 2 ч. 5 м.
    Вид битрейта : Постоянный
    Битрейт : 192 Кбит/сек
    Каналы : 2 канала
    Расположение каналов : Front: L R
    Частота : 48,0 КГц
    Битовая глубина : 16 бит
    Метод сжатия : С потерями
    Размер потока : 173 Мбайт (7%)
    Выравнивание : Разделение по промежуткам
    Продолжительность промежутка : 42 мс. (1,00 видеокадр)
    Время предзагрузки промежутка : 500 мс.

    Аудио #2
    Идентификатор : 2
    Формат : AC-3
    Формат/Информация : Audio Coding 3
    Расширение режима : CM (complete main)
    Параметр Endianness формата : Big
    Идентификатор кодека : 2000
    Продолжительность : 2 ч. 5 м.
    Вид битрейта : Постоянный
    Битрейт : 448 Кбит/сек
    Каналы : 6 каналов
    Расположение каналов : Front: L C R, Side: L R, LFE
    Частота : 48,0 КГц
    Битовая глубина : 16 бит
    Метод сжатия : С потерями
    Размер потока : 403 Мбайт (16%)
    Выравнивание : Разделение по промежуткам
    Продолжительность промежутка : 42 мс. (1,00 видеокадр)
    Время предзагрузки промежутка : 500 мс.

    Аудио #3
    Идентификатор : 3
    Формат : AC-3
    Формат/Информация : Audio Coding 3
    Расширение режима : CM (complete main)
    Параметр Endianness формата : Big
    Идентификатор кодека : 2000
    Продолжительность : 2 ч. 5 м.
    Вид битрейта : Постоянный
    Битрейт : 192 Кбит/сек
    Каналы : 2 канала
    Расположение каналов : Front: L R
    Частота : 48,0 КГц
    Битовая глубина : 16 бит
    Метод сжатия : С потерями
    Размер потока : 173 Мбайт (7%)
    Выравнивание : Разделение по промежуткам
    Продолжительность промежутка : 42 мс. (1,00 видеокадр)
    Время предзагрузки промежутка : 500 мс.
    Скриншоты для ознакомления


    Залил: msltel
    Размер скачиваемого торрента: 4.11 GB (4408067040 Bytes)

    Уолл-стрит / Wall Street (1987 ) BDRip by msltel | D, P, A | Ремастеринг скачать через торрент бесплатно
    загрузка...
    Рейтинг →
     (голосов: 1, оценка 4/5, голосовать можно 1 раз )

    Другие торренты по теме:

  • Волк с Уолл-стрит / The Wolf of Wall Street (2013) HD 1080p | L1 | Трейлер
  • Уолл Стрит: Деньги не спят / Wall Street: Money Never Sleeps (2010) HDRip от Scarabey | D
  • Уолл-стрит / Wall Street (1987) HDRip от Scarabey | D | REMASTERED
  • Волк с Уолл-стрит
  • Эпоха алчности / Нападение на Уолл-стрит / Assault on Wall Street (2013) BDRip 720p от leonardo 59 Scarabey | L1
  • Нападение на Уолл-стрит / Эпоха алчности / Assault on Wall Street (2013) HDRip
  • Нападение на Уолл-стрит / Эпоха алчности / Assault on Wall Street (2013) HDRip от Smart-Tracker | КПК скачать через торрент бесплатно
  • Нападение на Уолл-стрит / Эпоха алчности / Bailout: The Age of Greed / Assault on Wall Street (2013) Blu-Ray 1080p | P


    • Комментарии (0):

      Информация

      Информация

        Посетители, находящиеся в группе Гости, не могут оставлять комментарии в данной новости.

        ↓ Меню



        ↓ Опрос

        А Вы добавили сайт в закладки?
        Да
        Не


        Top 10 за месяц (Фильмы)