.
Авторизация | Регистрация
» » Луна волков / Luna de lobos (1987) DVDRip скачать через торрент бесплатно




    Луна волков / Luna de lobos (1987) DVDRip скачать через торрент бесплатно

    Опубликовал: Админ | Дата: 27-02-2015, 11:09 | Просмотров: 318



    Детально о кино
    Русское название: Луна волков
    Русское название в мировом прокате: Luna de lobos
    Создали в: 1987
    Категория жанра: военный, исторический, драма
    Главный режиссер: Хулио Санчес Вальдес / Julio S?nchez Vald?s
    Актеры: Сантьяго Рамос, Антонио Ресинес, Альваро де Луна, Кити Манвер, Фернандо Виванко, Алисия Агут

    Сюжет фильма:
    Трагическая история борьбы небольшой группы республиканских партизан,
    на протяжении десяти лет (30 - 40 г. г. 20 века) противостоявших франкистскому режиму на севере Испании.


    Снималось в: Испания
    Время просмотра: 01:44:56
    Перевод текста: Субтитры

    Файл
    Кодек для видео: XviD
    Качество фильма: DVDRip
    Информация о видео: XVID, 608x352, 1.09 Gb, 25.000 fps, 1271 Kbps
    Информация о звуке: MP3, 44.1 KHz, 64.0 Kbps, 2 channels
    Субтитры: русские - petpav(softsub (SRT))

    Семпл
    Образец субтитров
    14
    00:04:52,402 -- 00:04:54,402
    Коровы, пошли, пошли.

    15
    00:04:57,682 -- 00:04:58,407
    Пошли, лентяйки.

    16
    00:05:07,403 -- 00:05:08,403
    Коровы, пошли.

    17
    00:05:14,804 -- 00:05:15,804
    Держи.

    18
    00:05:24,203 -- 00:05:25,803
    Посмотри там, Рамиро.
    Рядом с мельницей.

    19
    00:05:32,004 -- 00:05:33,004
    Моя сестра!

    20
    00:05:33,205 -- 00:05:34,205
    Да, Хуана.

    21
    00:05:35,006 -- 00:05:37,006
    Она, должно быть, гонит коров
    на луг Лас Льямас.

    22
    00:05:41,006 -- 00:05:42,006
    Я спущусь, решено.

    23
    00:05:42,007 -- 00:05:43,007
    Сейчас?

    24
    00:05:43,008 -- 00:05:44,008
    Сейчас!

    25
    00:05:44,009 -- 00:05:45,009
    Это очень опасно.
    Может увидеть кто-нибудь снизу.

    26
    00:05:45,010 -- 00:05:47,009
    Если осторожно, между зарослями
    кустарника, то нет.

    27
    00:05:47,010 -- 00:05:49,410
    Я поговорю с Хуаной, чтобы они были готовы,
    и этой ночью мы спустимся уже вчетвером.

    MediaInfo
    Общее
    Полное имя : Luna_volkovLuna.volkov.1987.rus.sub.avi
    Формат : AVI
    Формат/Информация : Audio Video Interleave
    Размер файла : 1009 Мбайт
    Продолжительность : 1 ч. 44 м.
    Общий поток : 1345 Кбит/сек

    Видео
    Идентификатор : 0
    Формат : MPEG-4 Visual
    Параметр BVOP формата : 1
    Параметр QPel формата : Нет
    Параметр GMC формата : Без точки перехода
    Параметр матрицы формата : Default (H.263)
    Режим смешивания : Сжатый битовый поток
    Идентификатор кодека : DX50
    Идентификатор кодека/Подсказка : DivX 5
    Продолжительность : 1 ч. 44 м.
    Битрейт : 1271 Кбит/сек
    Ширина : 608 пикселей
    Высота : 352 пикселя
    Соотношение сторон : 1,727
    Частота кадров : 25,000 кадров/сек
    Цветовое пространство : YUV
    Субдискретизация насыщенности : 4:2:0
    Битовая глубина : 8 бит
    Тип развёртки : Прогрессивная
    Метод сжатия : С потерями
    Бит/(Пиксели*Кадры) : 0.238
    Размер потока : 954 Мбайт (95%)
    Заголовок : Video
    Библиотека кодирования : DivX 5.2.1 Alpha (UTC 2004-09-08)

    Аудио
    Идентификатор : 1
    Формат : MPEG Audio
    Версия формата : Version 1
    Профиль формата : Layer 3
    Идентификатор кодека : 55
    Идентификатор кодека/Подсказка : MP3
    Продолжительность : 1 ч. 44 м.
    Вид битрейта : Постоянный
    Битрейт : 64,0 Кбит/сек
    Каналы : 2 канала
    Частота : 44,1 КГц
    Метод сжатия : С потерями
    Размер потока : 48,0 Мбайт (5%)
    Выравнивание : Разделение по промежуткам
    Продолжительность промежутка : 40 мс. (1,00 видеокадр)
    Время предзагрузки промежутка : 500 мс.
    Заголовок : Audio

    Скриншоты для ознакомления

    Залил: Владислав610
    Размер скачиваемого торрента: 0.99 GB (1058327388 Bytes)

    Луна волков / Luna de lobos (1987) DVDRip скачать через торрент бесплатно
    загрузка...
    Рейтинг →
     (голосов: 1, оценка 4/5, голосовать можно 1 раз )

    Другие торренты по теме:



      Комментарии (0):

      Информация

      Информация

        Посетители, находящиеся в группе Гости, не могут оставлять комментарии в данной новости.

        ↓ Меню



        ↓ Опрос

        А Вы добавили сайт в закладки?
        Да
        Не


        Top 10 за неделю (Фильмы)