.
Авторизация | Регистрация
Хочешь лучшие торренты? Добавь свой email!
Добавить
» » Андроид / Android / App (2013) BDRip от Deadmauvlad | Лицензия скачать через торрент бесплатно




    Андроид / Android / App (2013) BDRip от Deadmauvlad | Лицензия скачать через торрент бесплатно

    Опубликовал: Админ | Дата: 27-02-2015, 11:09 | Просмотров: 322


    Детально о кино
    Название: Андроид
    Оригинальное название: Android / App
    Год выхода: 2013
    Жанр: триллер
    Режиссер: Бобо Боерманс

    В ролях: Ханна Хекстра, Роберт де Хуг, Исис Каболе Маттис ван де Санде Бакхуйзен, Марк ван Эувен, Лиза Сипс, Ерун Шпиценбергер, Алекс Хендрикс, Патрик Мартенс, Гиги Равелли

    О фильме: Симпатичная студентка Анна просыпается после вечеринки и обнаруживает на своем смартфоне загадочное приложение Айрис… Активируя приложение, Анна запускает головокружительную и трагическую череду событий в жизни своих друзей и знакомых. Кто за этим стоит? …



    Снималось в: Нидерланды
    Время просмотра: 01:18:43
    Перевод текста: Дублированный

    Файл
    Кодек: XviD
    Качество: BDRip
    Видео: 688x288 (2.39:1), 24.000 fps, XviD build 73 ~1189 kbps avg, 0.25 bit/pixel
    Звук: 48 kHz, MPEG Layer 3, 2 ch, ~128.00 kbps avg
    MI
    Общее
    Полное имя : C:UsersDeadmauvladDesktopРелизы На выкладкуAndroid.2013.BDRip.Rus.Deadmauvlad.avi
    Формат : AVI
    Формат/Информация : Audio Video Interleave
    Размер файла : 747 Мбайт
    Продолжительность : 1 ч. 18 м.
    Общий поток : 1327 Кбит/сек
    Программа кодирования : VirtualDubMod 1.5.10.3 | www.virtualdub-fr.org || (build 2550/release)
    Библиотека кодирования : VirtualDubMod build 2550/release

    Видео
    Идентификатор : 0
    Формат : MPEG-4 Visual
    Профиль формата : Advanced Simple@L5
    Параметр BVOP формата : 1
    Параметр QPel формата : Нет
    Параметр GMC формата : Без точки перехода
    Параметр матрицы формата : Default (MPEG)
    Идентификатор кодека : XVID
    Идентификатор кодека/Подсказка : XviD
    Продолжительность : 1 ч. 18 м.
    Битрейт : 1190 Кбит/сек
    Ширина : 688 пикселей
    Высота : 288 пикселей
    Соотношение сторон : 2,40:1
    Частота кадров : 24,000 кадра/сек
    Цветовое пространство : YUV
    Субдискретизация насыщенности : 4:2:0
    Битовая глубина : 8 бит
    Тип развёртки : Прогрессивная
    Метод сжатия : С потерями
    Бит/(Пиксели*Кадры) : 0.250
    Размер потока : 670 Мбайт (90%)
    Библиотека кодирования : XviD 73

    Аудио
    Идентификатор : 1
    Формат : MPEG Audio
    Версия формата : Version 1
    Профиль формата : Layer 3
    Идентификатор кодека : 55
    Идентификатор кодека/Подсказка : MP3
    Продолжительность : 1 ч. 18 м.
    Вид битрейта : Постоянный
    Битрейт : 128 Кбит/сек
    Каналы : 2 канала
    Частота : 48,0 КГц
    Метод сжатия : С потерями
    Размер потока : 72,1 Мбайт (10%)
    Выравнивание : Соединение по промежуткам
    Продолжительность промежутка : 42 мс. (1,00 видеокадр)
    Время предзагрузки промежутка : 504 мс.
    Библиотека кодирования : LAME3.99r
    Залил: DJ_V.K_TV
    Размер скачиваемого торрента: 747.07 MB (783360000 Bytes)


    Андроид / Android / App (2013) BDRip от Deadmauvlad | Лицензия скачать через торрент бесплатно
    загрузка...
    Рейтинг →
     (голосов: 1, оценка 3/5, голосовать можно 1 раз )

    Другие торренты по теме:



      Комментарии (0):

      Информация

      Информация

        Посетители, находящиеся в группе Гости, не могут оставлять комментарии в данной новости.

        ↓ Меню



        ↓ Опрос

        А Вы добавили сайт в закладки?
        Да
        Не


        Top 10 за месяц (Фильмы)