.
Авторизация | Регистрация
Хочешь лучшие торренты? Добавь свой email!
Добавить
» » Нижний этаж / Ground Floor (2013) WEB-DL 720p | ViruseProject скачать через торрент бесплатно




    Нижний этаж / Ground Floor (2013) WEB-DL 720p | ViruseProject скачать через торрент бесплатно

    Опубликовал: Админ | Дата: 27-02-2015, 11:09 | Просмотров: 243

    Нижний этаж / Ground Floor Создали в: 2013
    Снималось в: США
    Категория жанра: комедия
    Время просмотра: 00:29:00
    Перевод текста: Профессиональный (многоголосый закадровый) ViruseProject
    Главный режиссёр: Гэйл Манкусо
    Актеры: Скайлар Эстин, Брига Хилэн, Рене Губе, Джеймс Эрл и др.Сюжет: Новый комедийный сериал от режиссера Друзья, Клиника, Американская семейка, Пригород и др., который рассказывает о молодом и успешном банкире Броди, который работает в компании Whitestone Trust. Броди провел одну ночь с Дженнифер, а потом обнаружил, что она работает в службе обслуживания здания, где располагается его компания. С этого момента им приходится справляться с растущей взаимной симпатией, к большому раздражению сослуживцев.Релиз:
    Над релизом трудились:
    Озвучка: *Елена Емельянова *Алекс Викке *Алексей Кизуб *Дмитрий Иванов
    Перевод текста: YetiArtem
    Редакция перевода, монтаж, сведение звука: viruse (Виталий Емельянов) Семпл Качество фильма: WEB-DL 720p
    Тип видео: MKV
    Информация о видео кодек: H.264
    Информация о звуке кодек: AC3
    Информация о видео: AVC, 1280x718 (16:9), 23.976 fps, 3 884 Kbps (0.176 bit/pixel)
    Информация о звуке 1: AC3, 48 KHz, 6 ch, 384 Kbps (ViruseProject)
    Информация о звуке 2: AC3, 48 KHz, 6 ch, 384 Kbps (Original)
    Субтитры: отсутствуют

    Скриншоты для ознакомления



    MediaInfo

    code
    Complete name : Ground.Floor.S01E01.720p.WEB-DL.Rus.Eng-ViruseProject.mkv
    Format : Matroska
    Format version : Version 4 / Version 2
    File size : 888 MiB
    Duration : 26mn 8s
    Overall bit rate : 4 746 Kbps
    Encoded date : UTC 2013-12-10 12:26:30
    Writing application : mkvmerge v6.5.0 (;Isn;t she lovely;) built on Oct 20 2013 12:50:05
    Writing library : libebml v1.3.0 libmatroska v1.4.1

    Video
    ID : 1
    Format : AVC
    Format/Info : Advanced Video Codec
    Format profile : High@L3.1
    Format settings, CABAC : No
    Format settings, ReFrames : 2 frames
    Codec ID : V_MPEG4/ISO/AVC
    Duration : 26mn 8s
    Bit rate : 3 884 Kbps
    Width : 1 280 pixels
    Height : 718 pixels
    Display aspect ratio : 16:9
    Frame rate mode : Constant
    Frame rate : 23.976 fps
    Color space : YUV
    Chroma subsampling : 4:2:0
    Bit depth : 8 bits
    Scan type : Progressive
    Bits/(Pixel*Frame) : 0.176
    Stream size : 726 MiB (82%)
    Language : English
    Default : Yes
    Forced : No
    Color primaries : BT.709
    Transfer characteristics : BT.709
    Matrix coefficients : BT.709

    Audio #1
    ID : 2
    Format : AC-3
    Format/Info : Audio Coding 3
    Mode extension : CM (complete main)
    Format settings, Endianness : Big
    Codec ID : A_AC3
    Duration : 26mn 8s
    Bit rate mode : Constant
    Bit rate : 384 Kbps
    Channel(s) : 6 channels
    Channel positions : Front: L C R, Side: L R, LFE
    Sampling rate : 48.0 KHz
    Bit depth : 16 bits
    Compression mode : Lossy
    Stream size : 71.8 MiB (8%)
    Title : Viruse Project
    Language : Russian
    Default : Yes
    Forced : No

    Audio #2
    ID : 3
    Format : AC-3
    Format/Info : Audio Coding 3
    Mode extension : CM (complete main)
    Format settings, Endianness : Big
    Codec ID : A_AC3
    Duration : 26mn 8s
    Bit rate mode : Constant
    Bit rate : 384 Kbps
    Channel(s) : 6 channels
    Channel positions : Front: L C R, Side: L R, LFE
    Sampling rate : 48.0 KHz
    Bit depth : 16 bits
    Compression mode : Lossy
    Stream size : 71.8 MiB (8%)
    Language : English
    Default : No
    Forced : No

    /code

    Внимание! Раздача ведётся путём добавления новых серий

    Внимание! Раздача ведётся путём добавления новых серий; при каждом добавлении создаётся новый торрент. Чтобы начать докачку новой серии, пользователям необходимо сделать следующее: (1) остановить скачивание, (2) удалить старый торрент у себя из клиента (старые серии удалять не надо), (3) скачать новый торрент и запустить его у себя в клиенте вместо старого, при этом указать клиенту путь в старую папку куда и должно происходить скачивание новых серий.
    Ваш клиент при этом должен произвести хеширование (проверку) старой папки (если не производит сам - помогите ему сделать это), и будет докачивать только те серии которых у вас ещё нет. Старые серии при этом не удаляются, а продолжают раздаваться!
    Eсли вы уже удалили старые серии, то предотвратить повторную закачку старых серий можно, отжав галочку в соответствующих местах при запуске нового торрента.


    Размер скачиваемого торрента: 2.32 GB (2493646197 Bytes)

    Нижний этаж / Ground Floor (2013) WEB-DL 720p | ViruseProject скачать через торрент бесплатно
    загрузка...
    Рейтинг →
     (голосов: 1, оценка 3/5, голосовать можно 1 раз )

    Другие торренты по теме:

  • Нижний этаж / Ground floor (2013) HDTVRip от GRIDA скачать через торрент бесплатно


    • Комментарии (0):

      Информация

      Информация

        Посетители, находящиеся в группе Гости, не могут оставлять комментарии в данной новости.

        ↓ Меню



        ↓ Опрос

        А Вы добавили сайт в закладки?
        Да
        Не


        Top 10 за месяц (Фильмы)