.
Авторизация | Регистрация
Хочешь лучшие торренты? Добавь свой email!
Добавить
» » К сокровищам авиакатастрофы / Гонка к Янки Зефиру / Race for the Yankee Zephyr (1981) DVD-5 скачать через торрент бесплатно




    К сокровищам авиакатастрофы / Гонка к Янки Зефиру / Race for the Yankee Zephyr (1981) DVD-5 скачать через торрент бесплатно

    Опубликовал: Админ | Дата: 27-02-2015, 11:09 | Просмотров: 375



    Детально о кино
    Русское название: К сокровищам авиакатастрофы (Гонка к Янки Зефиру)
    Русское название в мировом прокате: Race for the Yankee Zephyr
    Создали в: 1981
    Категория жанра: Приключения
    Главный режиссер: Дэвид Хеммингс
    Актеры: Кен Уол, Лесли Энн Уоррен, Дональд Плезенс, Джордж Пеппард, Бруно Лоуренс, Грант Тилли, Роберт Брюс, Гарри Разерфорд-Джонс, Тони Спаркс, Кларк Уокингтон


    Сюжет фильма: В озере, в высокогорьях Новой Зеландии, охотник Гибби Гибсон обнаруживает самолет потерпевший крушение во времена Второй Мировой Войны. Когда он рассказывает об этом, гангстеры начинают преследовать его, угрожая ему и его дочери, потому что они знают, где находятся 50 миллионов долларов пропавшие при крушении. Пилот вертолета Барни, рискуя своей жизнью, помогает Гибби бороться с ними.



    Снималось в: Австралия, Новая Зеландия, США
    Киностудия: Drake Films Ltd., Endeavour Productions, Gupta Film Services
    Время просмотра: 01:45:06
    Перевод текста: Дублированный, профессиональный многоголосый, профессиональный двухголосый, авторский (Немахов)
    Субтитры: Русские


    Файл
    Кодек для видео: MPEG-2
    Качество фильма: DVD-5
    Информация о видео: PAL 16:9 (720x576) VBR
    Информация о звуке: Русский (Dolby AC3, 2 ch)


    Перевод

    1. AC3, 2 ch, 192 Кбит/с - Профессиональный многоголосый (R5)
    2. AC3, 2 ch, 192 Кбит/с - Английский
    3. AC3, 2 ch, 192 Кбит/с - Дублированный (комбо дубляж)
    4. AC3, 2 ch, 192 Кбит/с - Профессиональный двухголосый (НТВ)
    5. AC3, 2 ch, 192 Кбит/с - Авторский одноголосый (Ю.Немахов)



    Меню


    DVDInfo
    Title: Локальный диск
    Size: 4.28 Gb ( 4 484 624 KBytes ) - DVD-5
    Enabled regions: 1, 2, 3, 4, 5, 6

    VTS_01 :
    Play Length:
    Video: PAL 4:3 (720x576) VBR

    VTS_02 :
    Play Length:
    Video: PAL 16:9 (720x576) VBR, Auto PanScan, Auto Letterboxed
    Audio:
    Not specified (Dolby AC3, 6 ch)

    VTS_03 :
    Play Length:
    Video: PAL 16:9 (720x576) VBR, Auto PanScan, Auto Letterboxed
    Audio:
    English (Dolby AC3, 2 ch)

    VTS_04 :
    Play Length:
    Video: PAL 4:3 (720x576) VBR
    Audio:
    English (Dolby AC3, 2 ch)

    VTS_05 :
    Play Length:
    Video: PAL 16:9 (720x576) VBR, Auto PanScan, Auto Letterboxed
    Audio:
    English (Dolby AC3, 2 ch)

    VTS_06 :
    Play Length: 01:45:06
    Video: PAL 16:9 (720x576) VBR, Auto PanScan, Auto Letterboxed
    Audio:
    Russian (Dolby AC3, 2 ch)
    English (Dolby AC3, 2 ch)
    Russian (Dolby AC3, 2 ch)
    Russian (Dolby AC3, 2 ch)
    Russian (Dolby AC3, 2 ch)
    Subtitles:
    Russian

    Menu Video:
    NTSC 4:3 (720x480) VBR
    Auto PanScan, Auto Letterboxed
    Menu English Language Unit :
    Root Menu




    MediaInfo
    Общее
    Полное имя : D:1АААК сокровищам авиакатастрофыVIDEO_TSVTS_06_1.VOB
    Формат : MPEG-PS
    Размер файла : 1024 Мбайт
    Продолжительность : 24 м.
    Режим общего битрейта : Переменный
    Общий поток : 5783 Кбит/сек

    Видео
    Идентификатор : 224 (0xE0)
    Формат : MPEG Video
    Версия формата : Version 2
    Профиль формата : Main@Main
    Параметр BVOP формата : Да
    Параметр матрицы формата : Выборочная
    Параметр GOP формата : M=3, N=15
    Продолжительность : 24 м.
    Вид битрейта : Переменный
    Битрейт : 4708 Кбит/сек
    Максимальный битрейт : 8500 Кбит/сек
    Ширина : 720 пикселей
    Высота : 576 пикселей
    Соотношение сторон : 16:9
    Частота кадров : 25,000 кадров/сек
    Стандарт вещания : PAL
    Цветовое пространство : YUV
    Субдискретизация насыщенности : 4:2:0
    Битовая глубина : 8 бит
    Тип развёртки : Чересстрочная
    Порядок развёртки : Верхнее поле первое
    Метод сжатия : С потерями
    Бит/(Пиксели*Кадры) : 0.454
    TimeCode_FirstFrame : 01:00:08:15
    TimeCode_Source : Group of pictures t_head
    Размер потока : 834 Мбайт (81%)

    Аудио #1
    Идентификатор : 189 (0xBD)-128 (0x80)
    Формат : AC-3
    Формат/Информация : Audio Coding 3
    Расширение режима : CM (complete main)
    Параметр Endianness формата : Big
    Режим смешивания : DVD-Video
    Продолжительность : 24 м.
    Вид битрейта : Постоянный
    Битрейт : 192 Кбит/сек
    Каналы : 2 канала
    Расположение каналов : Front: L R
    Частота : 48,0 КГц
    Битовая глубина : 16 бит
    Метод сжатия : С потерями
    Задержка видео : -80 мс.
    Размер потока : 34,0 Мбайт (3%)

    Аудио #2
    Идентификатор : 189 (0xBD)-129 (0x81)
    Формат : AC-3
    Формат/Информация : Audio Coding 3
    Расширение режима : CM (complete main)
    Параметр Endianness формата : Big
    Режим смешивания : DVD-Video
    Продолжительность : 24 м.
    Вид битрейта : Постоянный
    Битрейт : 192 Кбит/сек
    Каналы : 2 канала
    Расположение каналов : Front: L R
    Частота : 48,0 КГц
    Битовая глубина : 16 бит
    Метод сжатия : С потерями
    Задержка видео : -80 мс.
    Размер потока : 34,0 Мбайт (3%)

    Аудио #3
    Идентификатор : 189 (0xBD)-130 (0x82)
    Формат : AC-3
    Формат/Информация : Audio Coding 3
    Расширение режима : CM (complete main)
    Параметр Endianness формата : Big
    Режим смешивания : DVD-Video
    Продолжительность : 24 м.
    Вид битрейта : Постоянный
    Битрейт : 192 Кбит/сек
    Каналы : 2 канала
    Расположение каналов : Front: L R
    Частота : 48,0 КГц
    Битовая глубина : 16 бит
    Метод сжатия : С потерями
    Задержка видео : -80 мс.
    Размер потока : 34,0 Мбайт (3%)

    Аудио #4
    Идентификатор : 189 (0xBD)-131 (0x83)
    Формат : AC-3
    Формат/Информация : Audio Coding 3
    Расширение режима : CM (complete main)
    Параметр Endianness формата : Big
    Режим смешивания : DVD-Video
    Продолжительность : 24 м.
    Вид битрейта : Постоянный
    Битрейт : 192 Кбит/сек
    Каналы : 2 канала
    Расположение каналов : Front: L R
    Частота : 48,0 КГц
    Битовая глубина : 16 бит
    Метод сжатия : С потерями
    Задержка видео : -80 мс.
    Размер потока : 34,0 Мбайт (3%)

    Аудио #5
    Идентификатор : 189 (0xBD)-132 (0x84)
    Формат : AC-3
    Формат/Информация : Audio Coding 3
    Расширение режима : CM (complete main)
    Параметр Endianness формата : Big
    Режим смешивания : DVD-Video
    Продолжительность : 24 м.
    Вид битрейта : Постоянный
    Битрейт : 192 Кбит/сек
    Каналы : 2 канала
    Расположение каналов : Front: L R
    Частота : 48,0 КГц
    Битовая глубина : 16 бит
    Метод сжатия : С потерями
    Задержка видео : -80 мс.
    Размер потока : 34,0 Мбайт (3%)

    Текст
    Идентификатор : 189 (0xBD)-32 (0x20)
    Формат : RLE
    Формат/Информация : Run-length encoding
    Режим смешивания : DVD-Video

    Меню




    Скриншоты для ознакомления

    Залил: YArl
    Размер скачиваемого торрента: 4.28 GB (4592254976 Bytes)

    К сокровищам авиакатастрофы / Гонка к Янки Зефиру / Race for the Yankee Zephyr (1981) DVD-5 скачать через торрент бесплатно
    загрузка...
    Рейтинг →
     (голосов: 1, оценка 5/5, голосовать можно 1 раз )

    Другие торренты по теме:

  • К сокровищам авиакатастрофы / Гонка к Янки Зефиру / Race for the Yankee Zephyr (1981) BDRemux 1080p от MediaClub
  • К сокровищам авиакатастрофы / Гонка к Янки Зефиру / Race for the Yankee Zephyr (1981) BDRip 1080p от MediaClub
  • К сокровищам авиакатастрофы / Race for the Yankee Zephyr (1981) DVDRip-AVC от ExKinoRay | D, P, P2, A
  • К сокровищам авиакатастрофы / Race for the Yankee Zephyr (1981) BDRip 720p


    • Комментарии (0):

      Информация

      Информация

        Посетители, находящиеся в группе Гости, не могут оставлять комментарии в данной новости.

        ↓ Меню



        ↓ Опрос

        А Вы добавили сайт в закладки?
        Да
        Не


        Top 10 за месяц (Фильмы)