.
Авторизация | Регистрация
» » Особая личность / Special ID / Dak siu san fan (2013) BDRip 720p | L2 скачать через торрент бесплатно




    Особая личность / Special ID / Dak siu san fan (2013) BDRip 720p | L2 скачать через торрент бесплатно

    Опубликовал: Админ | Дата: 27-02-2015, 11:09 | Просмотров: 286



    Детально о кино
    Русское название: Особая личность
    Русское название в мировом прокате: Special ID / Dak siu san fan
    Создали в: 2013
    Категория жанра: боевик, триллер, криминал
    Главный режиссер: Кларенс Фок Ииу-леунг
    Актеры: Тянь Цзин, Донни Ен, Энди Он, Рональд Чэн, Колин Чоу, Теренс Йин, Чжиган Ян, Чжан Ханьюй, Хи Чинг Пав, Чеунг-Чинг Мак

    Сюжет фильма: Чэнь Цзылун это сотрудник полиции под прикрытием, глубоко внедрившийся в ряды одной из самых жестоких банд Китая. Сюн, главарь банды, поставил себе главную задачу — отыскать правительственных агентов, втесавшихся в его окружение. Теперь Чэнь разрывается на два фронта: старается уберечь свою семью от распада и сохранить в тайне собственную личность.

    Ставки с течением времени растут, т. к. с его товарищами по прикрытию поочерёдно расправляются, и Чэнь начинает опасаться, что его дни сочтены. Теперь ему придётся рискнуть всем, чтобы прикрыть преступную группировку и возвратить себе жизнь, которой он лишился, когда взялся за это опасное задание.




    Снималось в: Китай, Гонконг / Beijing Starlit Movie and TV Culture
    Время просмотра: 01:39:40
    Тип перевода: Любительское (двухголосое) GREEN TEA

    Файл
    Тип видео: MKV
    Качество фильма: BDRip 720p WiKi
    Информация о видео: 5898 kb/s, 1280x544
    Информация о звуке: Russian: AC3, 192 kb/s (2 ch) / Chinese Mandarin, Cantonese: AC3, 640 kb/s (6 ch)





    MI

    Format : Matroska
    Format version : Version 4 / Version 2
    File size : 5.13 GiB
    Duration : 1h 39mn
    Overall bit rate : 7 370 Kbps
    Encoded date : UTC 2014-01-02 11:04:10
    Writing application : mkvmerge v6.1.0 (;Old Devil;) built on Mar 4 2013 09:10:42
    Writing library : libebml v1.3.0 libmatroska v1.4.0

    Video
    ID : 1
    Format : AVC
    Format/Info : Advanced Video Codec
    Format profile : High@L4.1
    Format settings, CABAC : Yes
    Format settings, ReFrames : 12 frames
    Codec ID : V_MPEG4/ISO/AVC
    Duration : 1h 39mn
    Bit rate : 5 898 Kbps
    Width : 1 280 pixels
    Height : 544 pixels
    Display aspect ratio : 2.35:1
    Frame rate : 24.000 fps
    Color space : YUV
    Chroma subsampling : 4:2:0
    Bit depth : 8 bits
    Scan type : Progressive
    Bits/(Pixel*Frame) : 0.353
    Stream size : 4.00 GiB (78%)
    Writing library : x264 core 129 r2245 704 36 8e61944 tMod MixAQ 8-bit@4:2:0 X86_64
    Encoding settings : cabac=1 / ref=12 / deblock=1:-3:-3 / analyse=0x3:0x133 / me=umh / subme=11 / psy=1 / fade_compensate=0.00 / psy_rd=1.05:0.10 / mixed_ref=1 / me_range=32 / chroma_me=1 / trellis=2 / 8x8dct=1 / cqm=0 / deadzone=21,11 / fast_pskip=0 / chroma_qp_offset=-3 / threads=18 / lookahead_threads=3 / sliced_threads=0 / nr=0 / decimate=0 / interlaced=0 / bluray_compat=0 / constrained_intra=0 / fgo=0 / bframes=8 / b_pyramid=2 / b_adapt=2 / b_bias=0 / direct=3 / weightb=1 / open_gop=0 / weightp=2 / keyint=250 / keyint_min=24 / scenecut=40 / intra_refresh=0 / rc_lookahead=50 / rc=2pass / mbtree=1 / bitrate=5898 / ratetol=1.0 / qcomp=0.70 / qpmin=0 / qpmax=69 / qpstep=4 / cplxblur=20.0 / qblur=0.5 / ip_ratio=1.40 / aq=3 / aq-strength=0.80 / aq-sensitivity=10.00 / aq-ifactor=1.00 / aq-pfactor=1.00 / aq-bfactor=1.00 / aq2=0
    Language : Chinese
    Default : Yes
    Forced : No
    Matrix coefficients : BT.709-5, BT.1361, IEC 61966-2-4 709, SMPTE RP177

    Audio #1
    ID : 2
    Format : AC-3
    Format/Info : Audio Coding 3
    Mode extension : CM (complete main)
    Format settings, Endianness : Big
    Codec ID : A_AC3
    Duration : 1h 39mn
    Bit rate mode : Constant
    Bit rate : 192 Kbps
    Channel(s) : 2 channels
    Channel positions : Front: L R
    Sampling rate : 48.0 KHz
    Bit depth : 16 bits
    Compression mode : Lossy
    Stream size : 137 MiB (3%)
    Language : Russian
    Default : Yes
    Forced : No

    Audio #2
    ID : 3
    Format : AC-3
    Format/Info : Audio Coding 3
    Mode extension : CM (complete main)
    Format settings, Endianness : Big
    Codec ID : A_AC3
    Duration : 1h 39mn
    Bit rate mode : Constant
    Bit rate : 640 Kbps
    Channel(s) : 6 channels
    Channel positions : Front: L C R, Side: L R, LFE
    Sampling rate : 48.0 KHz
    Bit depth : 16 bits
    Compression mode : Lossy
    Stream size : 456 MiB (9%)
    Title : Cantonese
    Language : Chinese
    Default : No
    Forced : No

    Audio #3
    ID : 4
    Format : AC-3
    Format/Info : Audio Coding 3
    Mode extension : CM (complete main)
    Format settings, Endianness : Big
    Codec ID : A_AC3
    Duration : 1h 39mn
    Bit rate mode : Constant
    Bit rate : 640 Kbps
    Channel(s) : 6 channels
    Channel positions : Front: L C R, Side: L R, LFE
    Sampling rate : 48.0 KHz
    Bit depth : 16 bits
    Compression mode : Lossy
    Stream size : 456 MiB (9%)
    Title : Mandarin
    Language : Chinese
    Default : No
    Forced : No

    Menu
    00:00:00.000 : en:00:00:00.000
    00:09:22.375 : en:00:09:22.375
    00:16:51.166 : en:00:16:51.166
    00:24:07.791 : en:00:24:07.791
    00:33:51.791 : en:00:33:51.791
    00:43:27.958 : en:00:43:27.958
    00:48:45.750 : en:00:48:45.750
    00:59:29.458 : en:00:59:29.458
    01:05:43.541 : en:01:05:43.541
    01:13:37.583 : en:01:13:37.583
    01:25:33.541 : en:01:25:33.541
    01:32:26.333 : en:01:32:26.333
    Скриншоты для ознакомления

    Размер скачиваемого торрента: 5.13 GB (5509567516 Bytes)

    Особая личность / Special ID / Dak siu san fan (2013) BDRip 720p | L2 скачать через торрент бесплатно
    загрузка...
    Рейтинг →
     (голосов: 1, оценка 4/5, голосовать можно 1 раз )

    Другие торренты по теме:

  • Особая личность / Special ID / Dak siu san fan (2013) WEBRip | L2 скачать через торрент бесплатно
  • Особая личность / Special ID / Dak siu san fan (2013) HDRip | L2 скачать через торрент бесплатно
  • Особая личность / Dak siu san fan (2013) HDRip | КПК | от -=HD-NET=- торрент скачать бесплатно
  • Особая личность / Special ID / Dak siu san fan (2013) HDRip от Assassins Creed | L2 скачать через торрент бесплатно


    • Комментарии (0):

      Информация

      Информация

        Посетители, находящиеся в группе Гости, не могут оставлять комментарии в данной новости.

        ↓ Меню



        ↓ Опрос

        А Вы добавили сайт в закладки?
        Да
        Не


        Top 10 за неделю (Фильмы)