.
Авторизация | Регистрация
» » Шерлок / Sherlock (2014) DVB | Первый канал скачать через торрент бесплатно




    Шерлок / Sherlock (2014) DVB | Первый канал скачать через торрент бесплатно

    Опубликовал: Админ | Дата: 27-02-2015, 11:09 | Просмотров: 280



    Детально о кино
    Русское название: Шерлок
    Русское название в мировом прокате: Sherlock
    Создали в: 2014
    Категория жанра: Драма, детектив
    Снималось в: Великобритания, Hartswood Films, BBC Wales, Masterpiece Theatre
    Главный режиссер: Пол МакГиган
    Актеры: Бенедикт Камбербэтч, Мартин Фриман, Уна Стаббс, Лу Брили, Руперт Грейвз, Марк Гатисс, Зои Телфорд, Винетт Робинсон, Таня Муди, Джонатан Арис

    Совместная деятельность Шерлока и Джона подвергается испытанию, когда Джон влюбляется в Мэри Морстен. Она - восприимчивая, умная девушка, и демонстрация Холмсом своих талантов не производит на нее никакого впечатления. После смерти Мориарти, Холмс оказывается втянутым в битву с другим умным противником - могущественным Чарльзом Августом Магнуссеном, который держит в руках секреты всего мира. Для Шерлока и Джона снова начинается игра...



    Релиз:

    Файл
    Качество фильма: DVB
    Тип видео: MPG
    Информация о видео: 720x576 @ 1024x576 (16х9) 25.00fps 5 810 Kbps, 0.560 bit/pixel
    Информация о звуке: MP3, 48000Hz stereo 160 Кбит/сек
    Время просмотра: ~ 01:30:00
    Перевод текста: Дублированный (Первый Канал)


    MI
    General
    Complete name : C:2013Sherlock. S03E01 (2013, DVB) (MYDIMKA).mpg
    Format : MPEG-PS
    File size : 3.68 GiB
    Duration : 1h 26mn
    Overall bit rate mode : Variable
    Overall bit rate : 6 084 Kbps

    Video
    ID : 224 (0xE0)
    Format : MPEG Video
    Format version : Version 2
    Format profile : Main@Main
    Format settings, BVOP : Yes
    Format settings, Matrix : Custom
    Format settings, GOP : Variable
    Duration : 1h 26mn
    Bit rate mode : Variable
    Bit rate : 5 803 Kbps
    Maximum bit rate : 15.0 Mbps
    Width : 720 pixels
    Height : 576 pixels
    Display aspect ratio : 16:9
    Frame rate : 25.000 fps
    Standard : PAL
    Color space : YUV
    Chroma subsampling : 4:2:0
    Bit depth : 8 bits
    Scan type : Interlaced
    Scan order : Top Field First
    Compression mode : Lossy
    Bits/(Pixel*Frame) : 0.560
    Time code of first frame : 00:00:00:00
    Time code source : Group of pictures t_head
    Stream size : 3.51 GiB (95%)

    Audio
    ID : 192 (0xC0)
    Format : MPEG Audio
    Format version : Version 1
    Format profile : Layer 2
    Duration : 1h 26mn
    Bit rate mode : Constant
    Bit rate : 160 Kbps
    Channel count : 2 channels
    Sampling rate : 48.0 KHz
    Compression mode : Lossy
    Delay relative to video : 23ms
    Stream size : 99.0 MiB (3%)

    Залил: DGEKIGAN
    Размер скачиваемого торрента: 3.68 GB (3946063872 Bytes)

    Шерлок / Sherlock (2014) DVB | Первый канал скачать через торрент бесплатно
    загрузка...
    Рейтинг →
     (голосов: 1, оценка 3/5, голосовать можно 1 раз )

    Другие торренты по теме:

  • Шерлок / Sherlock (2012) 4xDVD5 торрент скачать бесплатно
  • Том и Джерри: Шерлок Холмс / Tom Jerry Meet Sherlock Holmes (2010) BDRip-AVC | iPad торрент скачать бесплатно
  • Шерлок Холмс против Джека Потрошителя (2009) PC | Лицензия торрент скачать бесплатно
  • OST - Шерлок Холмс: Игра теней - Soundtrack (2011) MP3 торрент скачать бесплатно
  • Шерлок Холмс и секрет Ктулху (2007) PC | RePack от R.G. UPG торрент скачать бесплатно
  • Мемуары Шерлокa Холмсa. Шерлок Холмс присмерти / The Memoirs of Sherlock Holmes.The dying detective (1994) IPTVRip от Generalfilm торрент скачать бесплатно
  • Артур Конан Дойль - Записки о Шерлоке Холмсе, Возвращение Шерлока Холмса (2008) MP3 торрент скачать бесплатно
  • Артур Конан Дойль - Последнее дело. Рассказы. Из воспоминаний о Шерлоке Холмсе (2012) MP3 торрент скачать бесплатно


    • Комментарии (0):

      Информация

      Информация

        Посетители, находящиеся в группе Гости, не могут оставлять комментарии в данной новости.

        ↓ Меню



        ↓ Опрос

        А Вы добавили сайт в закладки?
        Да
        Не


        Top 10 за неделю (Фильмы)