.
Авторизация | Регистрация
» » За пригоршню динамита / Giu la testa / A Fistful of Dynamite / (1971) DVD-9 скачать через торрент бесплатно




    За пригоршню динамита / Giu la testa / A Fistful of Dynamite / (1971) DVD-9 скачать через торрент бесплатно

    Опубликовал: Админ | Дата: 27-02-2015, 11:09 | Просмотров: 384




    Детально о кино
    Русское название: За пригоршню динамита
    Русское название в мировом прокате: Giu la testa / A Fistful of Dynamite
    Создали в: 1971
    Категория жанра: Вестерн
    Главный режиссер: Серджио Леоне
    Актеры: Джеймс Коберн, Род Стайгер, Мария Монти, Рик Батталья, Франко Грациози, Ромоло Валли, Антуан Сент-Джон, Вивьенн Чэндлер, Дэвид Уорбек, Джулио Баттиферри, Польдо Бенданди, Омар Бонаро, Рой Босьер, Джон Фредерик, Амато Гарбини


    Сюжет фильма: На бескрайних мексиканских просторах встречаются два солдата удачи — развеселый бандит Хуан Миранда, грабящий со своими детишками почтовые дилижансы, и ирландский террорист и бомбометатель Мэллори, мчащийся на своем мотоцикле навстречу опасности и оставляя позади себя воронки от разрывов динамитных шашек. Миранда мечтает использовать взрывоопасный талант Мэллори — для ограбления банка. Но вместо банковских сейфов он освобождает политических заложников и становится героем революции. Очень скоро друзьям предстоит забыть радости вольной жизни на полях сражений за свободу мексиканского народа…



    Снималось в: Италия
    Киностудия: Rafran Cinematografica, Euro International Film (EIA), San Miura
    Время просмотра: 02:36:46
    Перевод текста: Профессиональный двухголосый, профессиональный многоголосый, авторский
    Субтитры: Английские


    Файл
    Кодек для видео: MPEG-2
    Качество фильма: DVD-9
    Информация о видео: NTSC 16:9 (720x480) VBR
    Информация о звуке: Русский, английский (Dolby AC3, 2 ch)

    Перевод

    1. Английский
    2. Профессиональный двухголосый (П.Гланц и И.Королева)
    3. Профессиональный многоголосый (ОРТ)
    4. Авторский (А.Мудров)


    Меню


    DVDInfo
    Title: Локальный диск
    Size: 7.35 Gb ( 7 709 418 KBytes ) - DVD-9
    Enabled regions: 1, 2, 3, 4, 5, 6, 7, 8

    VTS_01 :
    Play Length:
    Video: NTSC 4:3 (720x480) VBR

    VTS_02 :
    Play Length: 00:00:09
    Video: NTSC 16:9 (720x480) VBR, Auto PanScan

    VTS_03 :
    Play Length: 02:36:46
    Video: NTSC 16:9 (720x480) VBR, Auto PanScan
    Audio:
    English (Dolby AC3, 2 ch)
    Russian (Dolby AC3, 2 ch)
    Russian (Dolby AC3, 2 ch)
    Russian (Dolby AC3, 2 ch)
    Subtitles:
    English
    English
    English
    Not specified

    VTS_04 :
    Play Length: 00:00:01
    Video: NTSC 16:9 (720x480) VBR, Auto PanScan
    Audio:
    English (Dolby AC3, 6 ch)

    Menu Video:
    NTSC 16:9 (720x480) VBR
    Auto Letterboxed
    Menu Subtitles:
    Not specified
    Menu English Language Unit :
    Root Menu
    Subpicture Menu
    Audio Menu
    Angle menu
    Chapter (PTT) Menu




    MediaInfo
    General
    Полное имя : D:1АААЗа пригоршню динамитаVIDEO_TSVTS_03_1.VOB
    Формат : MPEG-PS
    Размер файла : 1 024 MiB
    Продолжительность : 24mn 1s
    Режим общего битрейта : Variable
    Общий поток : 5 961 Kbps

    Video
    Идентификатор : 224 (0xE0)
    Формат : MPEG Video
    Версия формата : Version 2
    Профиль формата : Main@Main
    Параметр BVOP формата : Yes
    Параметр матрицы формата : Custom
    Параметр GOP формата : Variable
    Продолжительность : 24mn 1s
    Вид битрейта : Variable
    Битрейт : 5 010 Kbps
    Максимальный битрейт : 9 800 Kbps
    Ширина : 720 pixels
    Высота : 480 pixels
    Соотношение сторон : 16:9
    Частота кадров : 23.976 fps
    Стандарт вещания : Component
    Цветовое пространство : YUV
    Субдискретизация насыщенности : 4:2:0
    Битовая глубина : 8 bits
    Тип развёртки : Progressive
    Порядок развёртки : 2:3 Pulldown
    Метод сжатия : Lossy
    Бит/(Пиксели*Кадры) : 0.605
    TimeCode_FirstFrame : 00:59:59;15
    TimeCode_Source : Group of pictures t_head
    Размер потока : 861 MiB (84%)
    Color primaries : BT.601 NTSC
    Transfer characteristics : BT.601
    Matrix coefficients : BT.601

    Audio #1
    Идентификатор : 189 (0xBD)-128 (0x80)
    Формат : AC-3
    Формат/Информация : Audio Coding 3
    Расширение режима : CM (complete main)
    Параметр Endianness формата : Big
    Режим смешивания : DVD-Video
    Продолжительность : 24mn 0s
    Вид битрейта : Constant
    Битрейт : 192 Kbps
    Каналы : 2 channels
    Расположение каналов : Front: L R
    Частота : 48.0 KHz
    Битовая глубина : 16 bits
    Метод сжатия : Lossy
    Размер потока : 33.0 MiB (3%)

    Audio #2
    Идентификатор : 189 (0xBD)-129 (0x81)
    Формат : AC-3
    Формат/Информация : Audio Coding 3
    Расширение режима : CM (complete main)
    Параметр Endianness формата : Big
    Режим смешивания : DVD-Video
    Продолжительность : 24mn 0s
    Вид битрейта : Constant
    Битрейт : 224 Kbps
    Каналы : 2 channels
    Расположение каналов : Front: L R
    Частота : 48.0 KHz
    Битовая глубина : 16 bits
    Метод сжатия : Lossy
    Размер потока : 38.5 MiB (4%)

    Audio #3
    Идентификатор : 189 (0xBD)-130 (0x82)
    Формат : AC-3
    Формат/Информация : Audio Coding 3
    Расширение режима : CM (complete main)
    Параметр Endianness формата : Big
    Режим смешивания : DVD-Video
    Продолжительность : 24mn 0s
    Вид битрейта : Constant
    Битрейт : 192 Kbps
    Каналы : 6 channels
    Расположение каналов : Front: L C R, Side: L R, LFE
    Частота : 48.0 KHz
    Битовая глубина : 16 bits
    Метод сжатия : Lossy
    Размер потока : 33.0 MiB (3%)

    Audio #4
    Идентификатор : 189 (0xBD)-131 (0x83)
    Формат : AC-3
    Формат/Информация : Audio Coding 3
    Расширение режима : CM (complete main)
    Параметр Endianness формата : Big
    Режим смешивания : DVD-Video
    Продолжительность : 24mn 0s
    Вид битрейта : Constant
    Битрейт : 224 Kbps
    Каналы : 2 channels
    Расположение каналов : Front: L R
    Частота : 48.0 KHz
    Битовая глубина : 16 bits
    Метод сжатия : Lossy
    Размер потока : 38.5 MiB (4%)

    Text
    Идентификатор : 189 (0xBD)-32 (0x20)
    Формат : RLE
    Формат/Информация : Run-length encoding
    Режим смешивания : DVD-Video

    Menu




    Скриншоты для ознакомления

    Залил: YArl
    Размер скачиваемого торрента: 7.35 GB (7894444032 Bytes)

    За пригоршню динамита / Giu la testa / A Fistful of Dynamite / (1971) DVD-9 скачать через торрент бесплатно
    загрузка...
    Рейтинг →
     (голосов: 1, оценка 4/5, голосовать можно 1 раз )

    Другие торренты по теме:

  • OST - За пригоршню долларов / Per Un Pugno Di Dollari - Soundtrack (1964) MP3 торрент скачать бесплатно
  • За пригоршню долларов / Per un pugno di dollari (1964) BDRip 1080p торрент скачать бесплатно
  • За пригоршню динамита / Giu la testa (1971) HDTVRip-AVC от Тorrent-Хzona торрент скачать бесплатно
  • За пригоршню долларов / A Fistful of Dollars / Per un pugno di dollari (1964) HDRip от Scarabey | Р торрент скачать бесплатно
  • За пригоршню динамита / Giu la testa / A Fistful of Dynamite (1971) BDRemux 1080p от MediaClub | P, P2, A скачать через торрент бесплатно
  • Пригоршня праха / A Handful of Dust (1988) DVDRip | P1 скачать через торрент бесплатно
  • За пригоршню долларов / A Fistful of Dollars / Per un pugno di dollari (1964) BDRip-AVC | iPad | P,A торрент скачать бесплатно
  • За пригоршню долларов / Per un pugno di dollari (1964) BDRip от MediaClub | КПК торрент скачать бесплатно


    • Комментарии (0):

      Информация

      Информация

        Посетители, находящиеся в группе Гости, не могут оставлять комментарии в данной новости.

        ↓ Меню



        ↓ Опрос

        А Вы добавили сайт в закладки?
        Да
        Не


        Top 10 за неделю (Фильмы)