.
Авторизация | Регистрация
Хочешь лучшие торренты? Добавь свой email!
Добавить
» » Ни жив, ни мёртв / Half Past Dead (2002) Blu-Ray Remux 1080p от NovaLan скачать через торрент бесплатно




    Ни жив, ни мёртв / Half Past Dead (2002) Blu-Ray Remux 1080p от NovaLan скачать через торрент бесплатно

    Опубликовал: Админ | Дата: 27-02-2015, 11:09 | Просмотров: 260



    Русское название: Ни жив, ни мёртв
    Русское название в мировом прокате: Half Past Dead
    Создали в: 2002
    Категория жанра: Боевик, триллер, криминал
    Главный режиссер: Дон Майкл Пол
    Актеры: Стивен Сигал, Моррис Честнат, Клаудиа Кристиан, Мэтт Батталья, Ричард Бреммер, Джа Рул, Дон Майкл Пол
    Сюжет фильма:
    Преступный гений пробует попасть в одну из самых хорошо охраняемых тюрем мира, чтобы узнать у сокамерника-смертника местоположение 200 миллионов долларов в золоте, когда-то им украденных. Но, на несчастье бандита, ФБР имеет своего человека в тюрьме, который сделает всё, чтобы помешать тому первым найти спрятанное сокровище.


    Снималось в: США, Германия, Franchise Pictures, Half Dead Productions Inc., Modern Media Filmproduktion, Screen Gems
    Время просмотра: 01:38:32
    Перевод текста: Дублированный / Профессиональный многоголосый / Авторский одноголосый (Евгений Рудой)

    Кодек для видео: H.264
    Качество фильма: Blu-Ray Remux 1080p
    Информация о видео: MPEG-4 AVC, 27,2 Мбит/сек, 1920x1080, 23,976 кадр/с
    Информация о звуке: Русский (AC3, 6 ch, 640 Кбит/с), (AC3, 6 ch, 448 Кбит/с), (AC3, 2 ch, 192 Кбит/с), английский (DTS-MA, 6 ch, 1561 Кбит/с), английский (AC3, 2 ch, 192 Кбит/с) - Комментарии режиссера
    Субтитры: Русские, английские

    Инфо-файл

    Полное имя : E:Раздачи_EHalf.Past.Dead.2002.BDRemux.1080p.NovaLan.mkv
    Формат : Matroska
    Версия формата : Version 4 / Version 2
    Размер файла : 21,2 Гбайт
    Продолжительность : 1 ч. 38 м.
    Режим общего битрейта : Переменный
    Общий поток : 30,8 Мбит/сек
    Название фильма : Half Past Dead 2002 - NovaLan
    Дата кодирования : UTC 2014-01-04 13:33:23
    Программа кодирования : mkvmerge v6.6.0 (;The Edge Of The In Between;) built on Dec 1 2013 17:55:00
    Библиотека кодирования : libebml v1.3.0 libmatroska v1.4.1

    Видео
    Идентификатор : 1
    Формат : AVC
    Формат/Информация : Advanced Video Codec
    Профиль формата : High@L4.1
    Параметр CABAC формата : Да
    Параметр ReFrames формата : 2 кадра
    Идентификатор кодека : V_MPEG4/ISO/AVC
    Продолжительность : 1 ч. 38 м.
    Вид битрейта : Переменный
    Битрейт : 27,2 Мбит/сек
    Ширина : 1920 пикселей
    Высота : 1080 пикселей
    Соотношение сторон : 16:9
    Частота кадров : 23,976 кадра/сек
    Цветовое пространство : YUV
    Субдискретизация насыщенности : 4:2:0
    Битовая глубина : 8 бит
    Тип развёртки : Прогрессивная
    Бит/(Пиксели*Кадры) : 0.546
    Размер потока : 18,7 Гбайт (88%)
    Заголовок : Half Past Dead
    Default : Да
    Forced : Нет

    Аудио #1
    Идентификатор : 2
    Формат : AC-3
    Формат/Информация : Audio Coding 3
    Расширение режима : CM (complete main)
    Параметр Endianness формата : Big
    Идентификатор кодека : A_AC3
    Продолжительность : 1 ч. 38 м.
    Вид битрейта : Постоянный
    Битрейт : 640 Кбит/сек
    Каналы : 6 каналов
    Расположение каналов : Front: L C R, Side: L R, LFE
    Частота : 48,0 КГц
    Битовая глубина : 16 бит
    Метод сжатия : С потерями
    Размер потока : 451 Мбайт (2%)
    Язык : Russian
    Default : Да
    Forced : Нет

    Аудио #2
    Идентификатор : 3
    Формат : AC-3
    Формат/Информация : Audio Coding 3
    Расширение режима : CM (complete main)
    Параметр Endianness формата : Big
    Идентификатор кодека : A_AC3
    Продолжительность : 1 ч. 38 м.
    Вид битрейта : Постоянный
    Битрейт : 448 Кбит/сек
    Каналы : 6 каналов
    Расположение каналов : Front: L C R, Side: L R, LFE
    Частота : 48,0 КГц
    Битовая глубина : 16 бит
    Метод сжатия : С потерями
    Размер потока : 316 Мбайт (1%)
    Язык : Russian
    Default : Нет
    Forced : Нет

    Аудио #3
    Идентификатор : 4
    Формат : AC-3
    Формат/Информация : Audio Coding 3
    Расширение режима : CM (complete main)
    Параметр Endianness формата : Big
    Идентификатор кодека : A_AC3
    Продолжительность : 1 ч. 38 м.
    Вид битрейта : Постоянный
    Битрейт : 192 Кбит/сек
    Каналы : 2 канала
    Расположение каналов : Front: L R
    Частота : 48,0 КГц
    Битовая глубина : 16 бит
    Метод сжатия : С потерями
    Размер потока : 135 Мбайт (1%)
    Язык : Russian
    Default : Нет
    Forced : Нет

    Аудио #4
    Идентификатор : 5
    Формат : DTS
    Формат/Информация : Digital Theater Systems
    Профиль формата : MA / Core
    Идентификатор кодека : A_DTS
    Продолжительность : 1 ч. 38 м.
    Вид битрейта : Переменный
    Битрейт : 1561 Кбит/сек / 1510 Кбит/сек
    Каналы : 6 каналов
    Расположение каналов : Front: L C R, Side: L R, LFE
    Частота : 48,0 КГц
    Битовая глубина : 16 бит
    Метод сжатия : Без потерь / Lossy
    Язык : English
    Default : Нет
    Forced : Нет

    Аудио #5
    Идентификатор : 6
    Формат : AC-3
    Формат/Информация : Audio Coding 3
    Профиль формата : Dolby Digital
    Расширение режима : CM (complete main)
    Параметр Endianness формата : Big
    Идентификатор кодека : A_AC3
    Продолжительность : 1 ч. 38 м.
    Вид битрейта : Постоянный
    Битрейт : 192 Кбит/сек
    Каналы : 2 канала
    Расположение каналов : Front: L R
    Частота : 48,0 КГц
    Битовая глубина : 16 бит
    Метод сжатия : С потерями
    Размер потока : 135 Мбайт (1%)
    Язык : English
    Default : Нет
    Forced : Нет

    Текст #1
    Идентификатор : 7
    Формат : UTF-8
    Идентификатор кодека : S_TEXT/UTF8
    Идентификатор кодека/Информация : UTF-8 Plain Text
    Язык : Russian
    Default : Нет
    Forced : Нет

    Текст #2
    Идентификатор : 8
    Формат : UTF-8
    Идентификатор кодека : S_TEXT/UTF8
    Идентификатор кодека/Информация : UTF-8 Plain Text
    Язык : English
    Default : Нет
    Forced : Нет

    Меню
    00:00:00.000 : en:Chapter 1
    00:10:13.070 : en:Chapter 2
    00:15:07.489 : en:Chapter 3
    00:20:17.633 : en:Chapter 4
    00:23:45.798 : en:Chapter 5
    00:30:56.729 : en:Chapter 6
    00:38:05.199 : en:Chapter 7
    00:42:28.503 : en:Chapter 8
    00:47:15.248 : en:Chapter 9
    00:54:28.181 : en:Chapter 10
    00:59:12.215 : en:Chapter 11
    01:06:37.952 : en:Chapter 12
    01:12:39.688 : en:Chapter 13
    01:19:33.769 : en:Chapter 14
    01:25:59.237 : en:Chapter 15
    01:29:42.667 : en:Chapter 16

    Сборка и работа со звуком Sergei7721





    Релиз подготовил:


    Залил: Sergei7721
    Размер скачиваемого торрента: 21.21 GB (22776087068 Bytes)

    Ни жив, ни мёртв / Half Past Dead (2002) Blu-Ray Remux 1080p от NovaLan скачать через торрент бесплатно
    загрузка...
    Рейтинг →
     (голосов: 1, оценка 3/5, голосовать можно 1 раз )

    Другие торренты по теме:

  • Ни жив, ни мертв / Half Past Dead (2002) HDRip | D
  • Ни жив ни мёртв 2 / Half Past Dead 2 (2007) DVD5 от Youtracker | P | Лицензия
  • Ни жив ни мёртв 2 / Half Past Dead 2 (2007) DVDRip от -=HD-NET=- | P | Лицензия
  • Ни жив, ни мёртв / Half Past Dead (2002) BDRip 1080p by msltel | D, P скачать через торрент бесплатно


    • Комментарии (0):

      Информация

      Информация

        Посетители, находящиеся в группе Гости, не могут оставлять комментарии в данной новости.

        ↓ Меню



        ↓ Опрос

        А Вы добавили сайт в закладки?
        Да
        Не


        Top 10 за месяц (Фильмы)