.
Авторизация | Регистрация
Хочешь лучшие торренты? Добавь свой email!
Добавить
» » Сексмиссия / Новые Амазонки / Seksmisja (1983) HDTVRip от New-Team скачать через торрент бесплатно




    Сексмиссия / Новые Амазонки / Seksmisja (1983) HDTVRip от New-Team скачать через торрент бесплатно

    Опубликовал: Админ | Дата: 27-02-2015, 11:09 | Просмотров: 454


    Снималось в: Польша
    Создали в: Zespol Filmowy Kadr
    Категория жанра: фантастика, комедия, приключения
    Создали в: 1983
    Время просмотра: 01:54:34

    Перевод текста: Профессиональный (многоголосый закадровый)
    Оригинальная аудиодорожка: нет
    Субтитры подготовлены: нет

    Главный режиссер: Юлиуш Махульский / Juliusz Machulski

    Актеры:
    Ольгерд Лукашевич, Ежи Штур, Божена Стрыйкувна, Богуслава Павелец, Ханна Станкувна, Беата Тышкевич, Рышарда Ханин, Барбара Людвижанка, Мирослава Мархелюк, Ханна Микуць...

    Сюжет:
    Альберт и Максимилиан соглашаются стать участниками эксперимента профессора Куппельвайзера: они, двое молодых мужчин лет 30-ти, в интересах науки должны быть заморожены сроком на 3 года. Однако за время, проведенное ими в специальных капсулах, на Земле многое изменилось, и потому Альбертика с Максом разморозили не через три года, а через полвека с лишним. В 2044 году. Когда вымерли все мужчины, и других самцов, кроме парочки размороженных, больше нигде не осталось.
    Амазонки 21-го века живут в глубоком подземелье, благополучно разрешив проблему размножения без оплодотворения, и не нуждаются в присутствии особей мужского пола. С риском для собственной жизни Альберт и Макс вынуждены приступить к выполнению сексмиссии…




    Исходник: HDTV 1080i
    Тип релиза: HDTVRip
    Контейнер: AVI

    Информация о видео: 624x352 (16:9), 25 fps, XviD ~ 774 kbps avg, 0.141 bit/pixel
    Информация о звуке: 48 kHz, MP3 2.0, 128 kbps

    Раздача от:
    MediaInfo

    Общее
    Полное имя : Seksmisja.1983.HDTVRip-745_New-team_by_AVP_Studio.avi
    Формат : AVI
    Формат/Информация : Audio Video Interleave
    Размер файла : 747 Мбайт
    Продолжительность : 1 ч. 54 м.
    Общий поток : 911 Кбит/сек
    Программа кодирования : VirtualDubModRus 1.5.10.2 (build 2542/release)
    Библиотека кодирования : VirtualDubMod build 2542/release

    Видео
    Идентификатор : 0
    Формат : MPEG-4 Visual
    Профиль формата : Advanced Simple@L5
    Параметр BVOP формата : 1
    Параметр QPel формата : Нет
    Параметр GMC формата : Без точки перехода
    Параметр матрицы формата : Выборочная
    Идентификатор кодека : XVID
    Идентификатор кодека/Подсказка : XviD
    Продолжительность : 1 ч. 54 м.
    Битрейт : 774 Кбит/сек
    Ширина : 624 пикселя
    Высота : 352 пикселя
    Соотношение сторон : 16:9
    Частота кадров : 25,000 кадров/сек
    Цветовое пространство : YUV
    Субдискретизация насыщенности : 4:2:0
    Битовая глубина : 8 бит
    Тип развёртки : Прогрессивная
    Метод сжатия : С потерями
    Бит/(Пиксели*Кадры) : 0.141
    Размер потока : 634 Мбайт (85%)
    Библиотека кодирования : XviD 73

    Аудио
    Идентификатор : 1
    Формат : MPEG Audio
    Версия формата : Version 1
    Профиль формата : Layer 3
    Идентификатор кодека : 55
    Идентификатор кодека/Подсказка : MP3
    Продолжительность : 1 ч. 54 м.
    Вид битрейта : Постоянный
    Битрейт : 128 Кбит/сек
    Каналы : 2 канала
    Частота : 48,0 КГц
    Метод сжатия : С потерями
    Размер потока : 105 Мбайт (14%)
    Выравнивание : Соединение по промежуткам
    Продолжительность промежутка : 40 мс. (1,00 видеокадр)
    Время предзагрузки промежутка : 504 мс.
    Библиотека кодирования : LAME3.99r
    Залил: AVPStudio
    Размер скачиваемого торрента: 747.00 MB (783288320 Bytes)


    Сексмиссия / Новые Амазонки / Seksmisja (1983) HDTVRip от New-Team скачать через торрент бесплатно
    загрузка...
    Рейтинг →
     (голосов: 1, оценка 4/5, голосовать можно 1 раз )

    Другие торренты по теме:

  • Сексмиссия / Новые амазонки / Seksmisja (1983) DVD5
  • Сексмиссия / Новые амазонки / Seksmisja (1983) HDTV 1080i
  • Сексмиссия / Новые Амазонки / Seksmisja (1983) HDTVRip-AVC от New-Team скачать через торрент бесплатно
  • Сексмиссия / Новые амазонки / Seksmisja (1983) WEB-DL 720p | P, P2


    • Комментарии (0):

      Информация

      Информация

        Посетители, находящиеся в группе Гости, не могут оставлять комментарии в данной новости.

        ↓ Меню



        ↓ Опрос

        А Вы добавили сайт в закладки?
        Да
        Не


        Top 10 за месяц (Фильмы)