.
Авторизация | Регистрация
Хочешь лучшие торренты? Добавь свой email!
Добавить
» » Охотник на зомби / Zombie Hunter (2013) BDRip 720p | L1 торрент скачать бесплатно




    Охотник на зомби / Zombie Hunter (2013) BDRip 720p | L1 торрент скачать бесплатно

    Опубликовал: Админ | Дата: 27-02-2015, 11:09 | Просмотров: 265



    Детально о кино
    Русское название: Охотник на зомби
    Русское название в мировом прокате: Zombie Hunter
    Создали в: 2013
    Категория жанра: фантастика, боевик, триллер
    Главный режиссер: К. Кинг
    Актеры: Мартин Коппинг, Дэнни Трехо, Клэр Нидерпрюэм, Джейд Рэгир, Джейсон К. Уиксом, Терри Гатри, Шона Кэй, Джефф Киркэм, Майкл Монастерио, Джаррод Филлипс

    Сюжет фильма: Охотник-одиночка путешествует по постапокалиптическому миру, кишащему зомби. Вся его семья погибла, и теперь он мстит за них. На пути ему встречается колония поселенцев, которые с трудом сдерживают атаки мутантов. Он — их последняя надежда в этом мире. Но согласится ли одиночка объединить усилия?



    Снималось в: Таиланд, США / Swingin; Productions LLC
    Время просмотра: 01:32:49
    Тип перевода: Любительское (одноголосное) den904

    Файл
    Тип видео: MKV
    Качество фильма: BDRip 720p WiKi
    Информация о видео: 4416 kb/s, 1280x544
    Информация о звуке: Russian: AC3, 448 kb/s (6 ch) / English: AC3, 640 kb/s (6 ch)





    MI

    Format : Matroska
    Format version : Version 4 / Version 2
    File size : 3.57 GiB
    Duration : 1h 32mn
    Overall bit rate : 5 505 Kbps
    Encoded date : UTC 2014-01-05 21:23:00
    Writing application : mkvmerge v6.1.0 (;Old Devil;) built on Mar 4 2013 09:10:42
    Writing library : libebml v1.3.0 libmatroska v1.4.0

    Video
    ID : 1
    Format : AVC
    Format/Info : Advanced Video Codec
    Format profile : High@L4.1
    Format settings, CABAC : Yes
    Format settings, ReFrames : 12 frames
    Codec ID : V_MPEG4/ISO/AVC
    Duration : 1h 32mn
    Bit rate : 4 416 Kbps
    Width : 1 280 pixels
    Height : 544 pixels
    Display aspect ratio : 2.35:1
    Frame rate : 23.976 fps
    Color space : YUV
    Chroma subsampling : 4:2:0
    Bit depth : 8 bits
    Scan type : Progressive
    Bits/(Pixel*Frame) : 0.265
    Stream size : 2.79 GiB (78%)
    Writing library : x264 core 136 r2348 704 51 d1baef6 tMod 8-bit@all X86_64
    Encoding settings : cabac=1 / ref=12 / deblock=1:-2:-2 / analyse=0x3:0x133 / me=umh / subme=11 / psy=1 / fade_compensate=0.00 / psy_rd=1.05:0.05 / mixed_ref=1 / me_range=32 / chroma_me=1 / trellis=2 / 8x8dct=1 / cqm=0 / deadzone=21,11 / fast_pskip=0 / chroma_qp_offset=-3 / threads=12 / lookahead_threads=2 / sliced_threads=0 / nr=0 / decimate=1 / interlaced=0 / bluray_compat=0 / constrained_intra=0 / fgo=0 / bframes=8 / b_pyramid=2 / b_adapt=2 / b_bias=0 / direct=3 / weightb=1 / open_gop=0 / weightp=2 / keyint=250 / keyint_min=23 / scenecut=40 / intra_refresh=0 / rc=2pass / mbtree=0 / bitrate=4416 / ratetol=1.0 / qcomp=0.75 / qpmin=0:0:0 / qpmax=69:69:69 / qpstep=4 / cplxblur=20.0 / qblur=0.5 / ip_ratio=1.40 / pb_ratio=1.30 / aq=3:0.90 / aq-sensitivity=10.00 / aq-factor=1.00:1.00:1.00 / aq2=0 / aq3=0
    Language : English
    Default : Yes
    Forced : No
    Matrix coefficients : BT.709-5, BT.1361, IEC 61966-2-4 709, SMPTE RP177

    Audio #1
    ID : 2
    Format : AC-3
    Format/Info : Audio Coding 3
    Mode extension : CM (complete main)
    Format settings, Endianness : Big
    Codec ID : A_AC3
    Duration : 1h 32mn
    Bit rate mode : Constant
    Bit rate : 448 Kbps
    Channel(s) : 6 channels
    Channel positions : Front: L C R, Side: L R, LFE
    Sampling rate : 48.0 KHz
    Bit depth : 16 bits
    Compression mode : Lossy
    Stream size : 297 MiB (8%)
    Language : Russian
    Default : Yes
    Forced : No

    Audio #2
    ID : 3
    Format : AC-3
    Format/Info : Audio Coding 3
    Mode extension : CM (complete main)
    Format settings, Endianness : Big
    Codec ID : A_AC3
    Duration : 1h 32mn
    Bit rate mode : Constant
    Bit rate : 640 Kbps
    Channel(s) : 6 channels
    Channel positions : Front: L C R, Side: L R, LFE
    Sampling rate : 48.0 KHz
    Bit depth : 16 bits
    Compression mode : Lossy
    Stream size : 425 MiB (12%)
    Language : English
    Default : No
    Forced : No

    Menu
    00:00:00.000 : en:00:00:00.000
    00:04:23.180 : en:00:04:23.180
    00:14:34.207 : en:00:14:34.207
    00:19:22.203 : en:00:19:22.203
    00:27:46.540 : en:00:27:46.540
    00:36:04.371 : en:00:36:04.371
    00:44:15.736 : en:00:44:15.736
    00:50:24.480 : en:00:50:24.480
    00:56:24.548 : en:00:56:24.548
    01:02:35.335 : en:01:02:35.335
    01:09:36.172 : en:01:09:36.172
    01:14:42.019 : en:01:14:42.019
    01:22:06.588 : en:01:22:06.588
    01:27:48.263 : en:01:27:48.263
    Скриншоты для ознакомления

    Размер скачиваемого торрента: 3.57 GB (3832503432 Bytes)

    Охотник на зомби / Zombie Hunter (2013) BDRip 720p | L1 торрент скачать бесплатно
    загрузка...
    Рейтинг →
     (голосов: 1, оценка 5/5, голосовать можно 1 раз )

    Другие торренты по теме:

  • Охотник на Дракулу / Dracula: Origin (2008) PC | RePack от Audioslave
  • OST - Президент Линкольн: Охотник на вампиров - Soundtrack (2012) MP3
  • Президент Линкольн: Охотник на вампиров / Abraham Lincoln: Vampire Hunter (2012) BDRip 1080p от NoLimits-Team
  • Охотник на оленей / The Deer Hunter (1978) BDRip 1080p от NoLimits-Team
  • Охотник на убийц / Нулевой подозреваемый / Suspect Zero (2004) DVDRip от Киномагия | P2
  • Капитан Кронос: Охотник на вампиров / Captain Kronos - Vampire Hunter (1974) DVDRip-AVC
  • Охотник на оленей 2014 / Deer Hunter 2014 (2013) Android скачать через торрент бесплатно
  • Охотник на убийц / Suspect Zero (2004) DVB от MediaClub скачать через торрент бесплатно


    • Комментарии (0):

      Информация

      Информация

        Посетители, находящиеся в группе Гости, не могут оставлять комментарии в данной новости.

        ↓ Меню



        ↓ Опрос

        А Вы добавили сайт в закладки?
        Да
        Не


        Top 10 за месяц (Фильмы)