.
Авторизация | Регистрация
» » Великая красота / The Great Beauty / La grande bellezza (2013) BDRip 720p | Лицензия скачать через торрент бесплатно




    Великая красота / The Great Beauty / La grande bellezza (2013) BDRip 720p | Лицензия скачать через торрент бесплатно

    Опубликовал: Админ | Дата: 27-02-2015, 11:09 | Просмотров: 253



    Детально о кино
    Русское название: Великая красота
    Русское название в мировом прокате: La grande bellezza
    Создали в: 2013
    Категория жанра: драма, комедия
    Главный режиссер: Паоло Соррентино
    Актеры: Тони Сервилло, Карло Вердоне, Сабрина Ферилли, Карло Буччироссо, Яя Форте, Памела Виллорези, Галатея Ранци, Франко Грациози, Джорджо Пазотти, Массимо Пополицио

    Сюжет фильма: Аристократки, нувориши, политики, преступники высокого полёта, журналисты, актёры, декаденствующие отпрыски благородных семейств, священники, художники, подлинные или мнимые интеллектуалы… Всех их поглощает современный Вавилон, пока они ткут канву непрочных взаимоотношений, предаваясь суетной жизни на фоне старинных дворцов, огромных вилл и великолепных террас. Все они здесь, и никто не предстаёт в выгодном свете.

    Апатичный и разочарованный 65-летний Джеп Гамбарделла, писатель и журналист, не расстающийся со стаканом джина с тоником, наблюдает за этим парадом влиятельных, но пустых и потерянных людей, которые производят на него гнетущее впечатление. Головокружительная картина потери нравственных ориентиров разворачивается в атмосфере великолепного и безразличного римского лета. Вечный город подобен умершей диве.




    Снималось в: Италия / Indigo Film, Medusa Film, Babe Film
    Время просмотра: 02:20:41
    Тип перевода: Профессиональное (многоголосное) лицензия

    Файл
    Тип видео: MKV
    Качество фильма: BDRip 720p
    Информация о видео: 5010 kb/s, 1280x544
    Информация о звуке: Russian: AC3, 448 kb/s (6 ch) / Italian: 640 kb/s (6 ch)
    Субтитры: English, Italian





    MI

    Format : Matroska
    Format version : Version 4 / Version 2
    File size : 5.99 GiB
    Duration : 2h 20mn
    Overall bit rate : 6 100 Kbps
    Encoded date : UTC 2014-01-06 17:43:18
    Writing application : mkvmerge v6.1.0 (;Old Devil;) built on Mar 4 2013 09:10:42
    Writing library : libebml v1.3.0 libmatroska v1.4.0

    Video
    ID : 1
    Format : AVC
    Format/Info : Advanced Video Codec
    Format profile : High@L4.1
    Format settings, CABAC : Yes
    Format settings, ReFrames : 5 frames
    Codec ID : V_MPEG4/ISO/AVC
    Duration : 2h 20mn
    Bit rate : 5 010 Kbps
    Width : 1 280 pixels
    Height : 544 pixels
    Display aspect ratio : 2.35:1
    Frame rate : 24.000 fps
    Color space : YUV
    Chroma subsampling : 4:2:0
    Bit depth : 8 bits
    Scan type : Progressive
    Bits/(Pixel*Frame) : 0.300
    Stream size : 4.81 GiB (80%)
    Writing library : x264 core 133 r2334 a3ac64b
    Encoding settings : cabac=1 / ref=5 / deblock=1:0:0 / analyse=0x3:0x133 / me=umh / subme=10 / psy=1 / psy_rd=1.00:0.15 / mixed_ref=1 / me_range=32 / chroma_me=1 / trellis=2 / 8x8dct=1 / cqm=0 / deadzone=21,11 / fast_pskip=0 / chroma_qp_offset=-3 / threads=6 / lookahead_threads=1 / sliced_threads=0 / nr=0 / decimate=1 / interlaced=0 / bluray_compat=0 / constrained_intra=0 / bframes=3 / b_pyramid=2 / b_adapt=2 / b_bias=0 / direct=3 / weightb=1 / open_gop=0 / weightp=2 / keyint=240 / keyint_min=24 / scenecut=40 / intra_refresh=0 / rc=2pass / mbtree=0 / bitrate=5010 / ratetol=2.0 / qcomp=0.60 / qpmin=10 / qpmax=51 / qpstep=4 / cplxblur=20.0 / qblur=0.5 / ip_ratio=1.40 / pb_ratio=1.00 / aq=1:1.00
    Language : English
    Default : Yes
    Forced : No

    Audio #1
    ID : 2
    Format : AC-3
    Format/Info : Audio Coding 3
    Mode extension : CM (complete main)
    Format settings, Endianness : Big
    Codec ID : A_AC3
    Duration : 2h 20mn
    Bit rate mode : Constant
    Bit rate : 448 Kbps
    Channel(s) : 6 channels
    Channel positions : Front: L C R, Side: L R, LFE
    Sampling rate : 48.0 KHz
    Bit depth : 16 bits
    Compression mode : Lossy
    Stream size : 451 MiB (7%)
    Language : Russian
    Default : Yes
    Forced : No

    Audio #2
    ID : 3
    Format : AC-3
    Format/Info : Audio Coding 3
    Mode extension : CM (complete main)
    Format settings, Endianness : Big
    Codec ID : A_AC3
    Duration : 2h 20mn
    Bit rate mode : Constant
    Bit rate : 640 Kbps
    Channel(s) : 6 channels
    Channel positions : Front: L C R, Side: L R, LFE
    Sampling rate : 48.0 KHz
    Bit depth : 16 bits
    Compression mode : Lossy
    Stream size : 644 MiB (10%)
    Language : Italian
    Default : No
    Forced : No

    Text #1
    ID : 4
    Format : UTF-8
    Codec ID : S_TEXT/UTF8
    Codec ID/Info : UTF-8 Plain Text
    Language : English
    Default : No
    Forced : No

    Text #2
    ID : 5
    Format : UTF-8
    Codec ID : S_TEXT/UTF8
    Codec ID/Info : UTF-8 Plain Text
    Language : Italian
    Default : No
    Forced : No
    Скриншоты для ознакомления

    Размер скачиваемого торрента: 5.99 GB (6436524406 Bytes)

    Великая красота / The Great Beauty / La grande bellezza (2013) BDRip 720p | Лицензия скачать через торрент бесплатно
    загрузка...
    Рейтинг →
     (голосов: 1, оценка 3/5, голосовать можно 1 раз )

    Другие торренты по теме:

  • Великая красота / The Great Beauty / La grande bellezza (2013) HDRip | P скачать через торрент бесплатно
  • Великая красота / The Great Beauty / La grande bellezza (2013) BDRip 720p | P торрент скачать бесплатно
  • Великая красота / The Great Beauty / La grande bellezza (2013) BDRip 720p от CINEMANIA | НТВ торрент скачать бесплатно
  • Великая красота / The Great Beauty / La grande bellezza (2013) BDRip 1080p от CINEMANIA | НТВ торрент скачать бесплатно
  • Великая красота / The Great Beauty / La grande bellezza (2013) HDRip-AVC от New-Team | P скачать через торрент бесплатно
  • Великая красота / The Great Beauty / La grande bellezza (2013) HDRip | Лицензия скачать через торрент бесплатно
  • Великая красота / The Great Beauty / La grande bellezza (2013) HDRip от Scarabey | Лицензия скачать через торрент бесплатно
  • Великая красота / La Grande Bellezza / The Great Beauty (2013) BDRip 720p от GORESEWAGE | Лицензия торрент скачать бесплатно


    • Комментарии (0):

      Информация

      Информация

        Посетители, находящиеся в группе Гости, не могут оставлять комментарии в данной новости.

        ↓ Меню



        ↓ Опрос

        А Вы добавили сайт в закладки?
        Да
        Не


        Top 10 за неделю (Фильмы)