.
Авторизация | Регистрация
Хочешь лучшие торренты? Добавь свой email!
Добавить
» » Опасная иллюзия / Влюбиться до смерти / The Necessary Death of Charlie Countryman (2013) BDRip 720p | L2 торрент скачать бесплатно


    Опасная иллюзия / Влюбиться до смерти / The Necessary Death of Charlie Countryman (2013) BDRip 720p | L2 торрент скачать бесплатно

    Опубликовал: Админ | Дата: 27-02-2015, 11:09 | Просмотров: 275



    Детально о кино
    Русское название: Опасная иллюзия / Влюбиться до смерти
    Русское название в мировом прокате: The Necessary Death of Charlie Countryman
    Создали в: 2013
    Категория жанра: боевик, мелодрама, комедия
    Главный режиссер: Фредрик Бонд
    Актеры: Шайа ЛаБаф, Эван Рэйчел Вуд, Мадс Миккельсен, Тиль Швайгер, Руперт Гринт, Джеймс Бакли, Ион Карамитру, Винсент Д’Онофрио, Мелисса Лео, Джон Хёрт

    Сюжет фильма: Избитый и израненный Чарли Кантримен подвешен вниз головой в центре Бухареста. Еще секунда — и в его сердце вонзится пуля, и жизнь молодого американского туриста оборвется.

    А ведь еще пару недель назад ничто не предвещало такого финала. Работа Чарли была скучной, но безопасной, а в личной жизни его лучшими друзьями были галлюциногенные вещества. И вдруг грянул гром — в наркотическом видении ему явилась покойная мама…




    Снималось в: Румыния, США
    Время просмотра: 01:43:36
    Тип перевода: Любительское (двухголосое) Студия Paradox И. Грачева и М. Максимов

    Файл
    Тип видео: MKV
    Качество фильма: BDRip 720p HDWinG
    Информация о видео: 5886 Kb/s, 1280x720
    Информация о звуке: Russian: AC3, 384 kb/s (6 ch) / English: AC3, 640 kb/s (6 ch)





    MI

    Format : Matroska
    Format version : Version 4 / Version 2
    File size : 5.10 GiB
    Duration : 1h 43mn
    Overall bit rate : 7 050 Kbps
    Encoded date : UTC 2014-01-07 13:37:33
    Writing application : mkvmerge v6.1.0 (;Old Devil;) built on Mar 4 2013 09:10:42
    Writing library : libebml v1.3.0 libmatroska v1.4.0

    Video
    ID : 1
    Format : AVC
    Format/Info : Advanced Video Codec
    Format profile : High@L4.1
    Format settings, CABAC : Yes
    Format settings, ReFrames : 9 frames
    Codec ID : V_MPEG4/ISO/AVC
    Duration : 1h 43mn
    Bit rate : 5 886 Kbps
    Width : 1 280 pixels
    Height : 720 pixels
    Display aspect ratio : 16:9
    Frame rate : 23.976 fps
    Color space : YUV
    Chroma subsampling : 4:2:0
    Bit depth : 8 bits
    Scan type : Progressive
    Bits/(Pixel*Frame) : 0.266
    Stream size : 4.26 GiB (83%)
    Writing library : x264 core 140 r2377 40 929f149 tMod 8-bit@4:2:0 X86_64
    Encoding settings : cabac=1 / ref=9 / deblock=1:-3:-3 / analyse=0x3:0x113 / me=umh / subme=11 / psy=1 / fade_compensate=0.00 / psy_rd=1.10:0.00 / mixed_ref=1 / me_range=32 / chroma_me=1 / trellis=2 / 8x8dct=1 / cqm=0 / deadzone=21,11 / fast_pskip=0 / chroma_qp_offset=-2 / threads=18 / lookahead_threads=3 / sliced_threads=0 / nr=0 / decimate=0 / interlaced=0 / bluray_compat=0 / constrained_intra=0 / fgo=0 / bframes=8 / b_pyramid=2 / b_adapt=2 / b_bias=0 / direct=3 / weightb=1 / open_gop=0 / weightp=2 / keyint=240 / keyint_min=24 / scenecut=40 / intra_refresh=0 / rc=crf / mbtree=0 / crf=17.2000 / qcomp=0.70 / qpmin=0:0:0 / qpmax=69:69:69 / qpstep=4 / ip_ratio=1.20 / pb_ratio=1.20 / aq=4:0.90 / aq-sensitivity=10.00 / aq-factor=1.00:1.00:1.00 / aq2=0 / aq3=0
    Language : English
    Default : Yes
    Forced : No

    Audio #1
    ID : 2
    Format : AC-3
    Format/Info : Audio Coding 3
    Mode extension : CM (complete main)
    Format settings, Endianness : Big
    Codec ID : A_AC3
    Duration : 1h 43mn
    Bit rate mode : Constant
    Bit rate : 384 Kbps
    Channel(s) : 6 channels
    Channel positions : Front: L C R, Side: L R, LFE
    Sampling rate : 48.0 KHz
    Bit depth : 16 bits
    Compression mode : Lossy
    Stream size : 285 MiB (5%)
    Language : Russian
    Default : Yes
    Forced : No

    Audio #2
    ID : 3
    Format : AC-3
    Format/Info : Audio Coding 3
    Mode extension : CM (complete main)
    Format settings, Endianness : Big
    Codec ID : A_AC3
    Duration : 1h 43mn
    Bit rate mode : Constant
    Bit rate : 640 Kbps
    Channel(s) : 6 channels
    Channel positions : Front: L C R, Side: L R, LFE
    Sampling rate : 48.0 KHz
    Bit depth : 16 bits
    Compression mode : Lossy
    Stream size : 474 MiB (9%)
    Language : English
    Default : No
    Forced : No

    Text
    ID : 4
    Format : PGS
    Muxing mode : zlib
    Codec ID : S_HDMV/PGS
    Codec ID/Info : The same subtitle format used on BDs/HD-DVDs
    Language : English
    Default : No
    Forced : No
    Скриншоты для ознакомления

    Размер скачиваемого торрента: 5.10 GB (5478253069 Bytes)

    Опасная иллюзия / Влюбиться до смерти / The Necessary Death of Charlie Countryman (2013) BDRip 720p | L2 торрент скачать бесплатно
    загрузка...
    Рейтинг →
     (голосов: 1, оценка 5/5, голосовать можно 1 раз )

    Другие торренты по теме:

  • Опасная иллюзия / Влюбиться до смерти / The Necessary Death of Charlie Countryman (2013) HDRip | L2
  • Опасная иллюзия / The Necessary Death of Charlie Countryman (2013) BDRip-AVC от MediaClub | L2 скачать через торрент бесплатно
  • Опасная иллюзия / Влюбиться до смерти / The Necessary Death of Charlie Countryman (2013) BDRip 1080p | L2 скачать через торрент бесплатно
  • Опасная иллюзия / Влюбиться до смерти / The Necessary Death of Charlie Countryman (2013) HDRip от Scarabey
  • Опасная иллюзия / The Necessary Death of Charlie Countryman (2013) BDRip 720p от Leonardo and Scarabey | L2 скачать через торрент бесплатно
  • Опасная иллюзия / The Necessary Death of Charlie Countryman (2013) HDRip | Точка Zрения
  • Опасная иллюзия / he Necessary Death of Charlie Countryman (2013) HDRip | L
  • OST - Опасная иллюзия / The Necessary Death of Charlie Countryman (2014) MP3 скачать через торрент бесплатно


    • Комментарии (0):

      Информация

      Информация

        Посетители, находящиеся в группе Гости, не могут оставлять комментарии в данной новости.

        ↓ Меню



        ↓ Опрос

        А Вы добавили сайт в закладки?
        Да
        Не


        Top 10 за месяц (Фильмы)