.
Авторизация | Регистрация
Хочешь лучшие торренты? Добавь свой email!
Добавить
» » Меня всё ещё зовут Троица / ...continuavano a chiamarlo Trinit (1971) BDRip by msltel | P, A | Расширенная версия торрент скачать бесплатно




    Меня всё ещё зовут Троица / ...continuavano a chiamarlo Trinit (1971) BDRip by msltel | P, A | Расширенная версия торрент скачать бесплатно

    Опубликовал: Админ | Дата: 27-02-2015, 11:09 | Просмотров: 301



    Русское название: Меня всё ещё зовут Троица Расширенная версия
    Русское название в мировом прокате: ...continuavano a chiamarlo Trinit? Unrated
    Создали в: 1971
    Категория жанра: Комедия, вестерн
    Снималось в: США, West Film
    Главный режиссер: Энзо Барбони
    Актеры: Теренс Хилл, Бад Спенсер, Янти Соммер, Энцо Тарашо, Гарри Кэри мл., Пупо Де Люка, Джессика Даблин, Дэна Гиа, Эмилио Делле Пьяне, Энцо Фьермонте, Антонио Монселесан, Франко Рессель, Риккардо Пиццути, Бенито Стефанелли, Фортунато Арена, Жерар Ландри, Жан Луис, Луиджи Бонос, Жильдо Ди Марко, Адриано Микантони, Джилберто Джалимберти, Бруно Бошетти, Витторио Фанфони

    Сюжет фильма: Братья клянутся своему умирающeму отцу, чтo oни стaнут нaстoящими плoхими парнями, но всегда будут зaботиться друг о другe. Они выпoлняют oбeщaниe и примыкают к тoрговцaм оружиeм, окопавшимся в небольшом монастыре. К сожалению, сами торговцы, почему-то, принимают Троицу и Бамбино за федеральных агентов и планируют их укокошить... А тем временем братья обнаруживают, что могут стать владельцами 50 тысяч долларов...

    Качество фильма: BDRip
    Размер скачиваемого торрента: 2.39 ГБ
    Время просмотра: 02:05:56

    Информация о видео: XviD, 1899 Кбит/с, 720x304
    Информация о звуке 1: русский, 48 kHz, AC3, 6 ch, 384 kbps avg, Профессиональный многоголосый, Film prestige
    Информация о звуке 2: русский, 48 kHz, AC3, 2 ch, 192 kbps avg, Авторский, Юрий Живов

    Внешние файлы
    Информация о звуке: итальянский, 48 kHz, AC3, 2 ch, 224 kbps avg, Оригинал
    Субтитры: русские (Film prestige)
    Субтитры: русские (на места без перевода)
    Субтитры: английские (AntiJw)

    Обе русские и итальянская аудиодорожки со вставками немецкого. Многоголоска со вставками Живова, а Живов со вставками многоголоски.

    Исходник: zavin (HDtracker)

    Сравнение с исходником



    MediaInfo
    Общее
    Полное имя : E:VideoMenja zovut Troica.2.UnCut.1971.XviD.BDRipMenja zovut Troica.2.UnCut.1971.eng.AntiJw.srt
    Размер файла : 119 Кбайт

    Общее
    Полное имя : E:VideoMenja zovut Troica.2.UnCut.1971.XviD.BDRipMenja zovut Troica.2.UnCut.1971.Original.ita.ac3
    Формат : AC-3
    Формат/Информация : Audio Coding 3
    Размер файла : 202 Мбайт
    Продолжительность : 2 ч. 6 м.
    Режим общего битрейта : Постоянный
    Общий поток : 224 Кбит/сек

    Аудио
    Формат : AC-3
    Формат/Информация : Audio Coding 3
    Расширение режима : CM (complete main)
    Параметр Endianness формата : Big
    Продолжительность : 2 ч. 6 м.
    Вид битрейта : Постоянный
    Битрейт : 224 Кбит/сек
    Каналы : 2 канала
    Расположение каналов : Front: L R
    Частота : 48,0 КГц
    Битовая глубина : 16 бит
    Метод сжатия : С потерями
    Размер потока : 202 Мбайт (100%)

    Общее
    Полное имя : E:VideoMenja zovut Troica.2.UnCut.1971.XviD.BDRipMenja zovut Troica.2.UnCut.1971.rus.srt
    Формат : SubRip
    Размер файла : 86,1 Кбайт

    Текст
    Формат : SubRip
    Метод сжатия : Без потерь

    Общее
    Полное имя : E:VideoMenja zovut Troica.2.UnCut.1971.XviD.BDRipMenja zovut Troica.2.UnCut.1971.rus.на места без перевода.srt
    Формат : SubRip
    Размер файла : 8,82 Кбайт

    Текст
    Формат : SubRip
    Метод сжатия : Без потерь

    Общее
    Полное имя : E:VideoMenja zovut Troica.2.UnCut.1971.XviD.BDRipMenja zovut Troica.2.UnCut.1971.XviD.BDRip.avi
    Формат : AVI
    Формат/Информация : Audio Video Interleave
    Профиль формата : OpenDML
    Размер файла : 2,19 Гбайт
    Продолжительность : 2 ч. 5 м.
    Общий поток : 2493 Кбит/сек
    Программа кодирования : VirtualDubMod 1.5.10.2 (build 2540/release)
    Библиотека кодирования : VirtualDubMod build 2540/release

    Видео
    Идентификатор : 0
    Формат : MPEG-4 Visual
    Профиль формата : Advanced Simple@L5
    Параметр BVOP формата : 1
    Параметр QPel формата : Нет
    Параметр GMC формата : Без точки перехода
    Параметр матрицы формата : Default (H.263)
    Режим смешивания : Сжатый битовый поток
    Идентификатор кодека : XVID
    Идентификатор кодека/Подсказка : XviD
    Продолжительность : 2 ч. 5 м.
    Битрейт : 1899 Кбит/сек
    Ширина : 720 пикселей
    Высота : 304 пикселя
    Соотношение сторон : 2,35:1
    Частота кадров : 24,000 кадра/сек
    Цветовое пространство : YUV
    Субдискретизация насыщенности : 4:2:0
    Битовая глубина : 8 бит
    Тип развёртки : Прогрессивная
    Метод сжатия : С потерями
    Бит/(Пиксели*Кадры) : 0.362
    Размер потока : 1,67 Гбайт (76%)
    Библиотека кодирования : XviD 1.2.1 (UTC 2008-12-04)

    Аудио #1
    Идентификатор : 1
    Формат : AC-3
    Формат/Информация : Audio Coding 3
    Расширение режима : CM (complete main)
    Параметр Endianness формата : Big
    Идентификатор кодека : 2000
    Продолжительность : 2 ч. 5 м.
    Вид битрейта : Постоянный
    Битрейт : 384 Кбит/сек
    Каналы : 6 каналов
    Расположение каналов : Front: L C R, Side: L R, LFE
    Частота : 48,0 КГц
    Битовая глубина : 16 бит
    Метод сжатия : С потерями
    Размер потока : 346 Мбайт (15%)
    Выравнивание : Разделение по промежуткам
    Продолжительность промежутка : 42 мс. (1,00 видеокадр)
    Время предзагрузки промежутка : 500 мс.

    Аудио #2
    Идентификатор : 2
    Формат : AC-3
    Формат/Информация : Audio Coding 3
    Расширение режима : CM (complete main)
    Параметр Endianness формата : Big
    Идентификатор кодека : 2000
    Продолжительность : 2 ч. 5 м.
    Вид битрейта : Постоянный
    Битрейт : 192 Кбит/сек
    Каналы : 2 канала
    Расположение каналов : Front: L R
    Частота : 48,0 КГц
    Битовая глубина : 16 бит
    Метод сжатия : С потерями
    Размер потока : 173 Мбайт (8%)
    Выравнивание : Разделение по промежуткам
    Продолжительность промежутка : 42 мс. (1,00 видеокадр)
    Время предзагрузки промежутка : 500 мс.
    Скриншоты для ознакомления



    Залил: msltel
    Размер скачиваемого торрента: 2.39 GB (2566857797 Bytes)

    Меня всё ещё зовут Троица / ...continuavano a chiamarlo Trinit (1971) BDRip by msltel | P, A | Расширенная версия торрент скачать бесплатно
    загрузка...
    Рейтинг →
     (голосов: 1, оценка 5/5, голосовать можно 1 раз )

    Другие торренты по теме:

  • Меня всё ещё зовут Троица / ...continuavano a chiamarlo Trinit (1971) BDRip 720p by msltel | P, A | Расширенная версия скачать через торрент бесплатно
  • Меня всё ещё зовут Троица / ...continuavano a chiamarlo Trinit (1971) BDRip 1080p by msltel | P, A | Расширенная версия скачать через торрент бесплатно
  • Меня всё ещё зовут Троица / ...continuavano a chiamarlo Trinit (1971) BDRip-AVC от MediaClub | Расширенная версия
  • Не волнуйся, у меня всё нормально / Je vais bien, ne ten fais pas (2006) BDRip 720p от Vikosol | L1 скачать через торрент бесплатно


    • Комментарии (0):

      Информация

      Информация

        Посетители, находящиеся в группе Гости, не могут оставлять комментарии в данной новости.

        ↓ Меню



        ↓ Опрос

        А Вы добавили сайт в закладки?
        Да
        Не


        Top 10 за месяц (Фильмы)