.
Авторизация | Регистрация
Хочешь лучшие торренты? Добавь свой email!
Добавить
» » Террор в прямом эфире / The Terror Live (2013) BDRip 720p | L2 скачать через торрент бесплатно




    Террор в прямом эфире / The Terror Live (2013) BDRip 720p | L2 скачать через торрент бесплатно

    Опубликовал: Админ | Дата: 27-02-2015, 11:09 | Просмотров: 289



    Детально о кино
    Русское название: Террор в прямом эфире
    Русское название в мировом прокате: The Terror Live
    Категория жанра: триллер
    Создали в: 2013
    Главный режиссер: Ким Бён У / Byeong-woo
    Актеры: Ха Чон У, И Гён Ён, Чон Хё Чин, Чхве Чин Хо, Ким Со Чин

    Сюжет фильма: Радиоведущий программы новостей получает звонок от террориста, который угрожает взорвать мост над рекой Хан. Ведущий думает, что это розыгрыш, и беспечно говорит ему сделать это. Спустя несколько секунд происходит взрыв.



    Снималось в: Южная Корея
    Время просмотра: 01:38:01
    Перевод текста: Любительский (двухголосый) den904, deadsno

    Файл
    Тип видео: MKV
    Качество фильма: BDRip 720p CHD
    Информация о видео: 1280x692, 5796 kb/s
    Информация о звуке: Русский: AC3, 192 kb/s (2 ch) / Корейский: DTS, 1510 kb/s (6 ch)
    Субтитры: английские

    MI

    Format : Matroska
    Format version : Version 4 / Version 2
    File size : 5.13 GiB
    Duration : 1h 38mn
    Overall bit rate : 7 486 Kbps
    Encoded date : UTC 2014-01-08 20:47:27
    Writing application : mkvmerge v6.1.0 (;Old Devil;) built on Mar 4 2013 09:10:42
    Writing library : libebml v1.3.0 libmatroska v1.4.0

    Video
    ID : 1
    Format : AVC
    Format/Info : Advanced Video Codec
    Format profile : High@L4.1
    Format settings, CABAC : Yes
    Format settings, ReFrames : 8 frames
    Codec ID : V_MPEG4/ISO/AVC
    Duration : 1h 38mn
    Bit rate : 5 796 Kbps
    Width : 1 280 pixels
    Height : 692 pixels
    Display aspect ratio : 1.85:1
    Frame rate : 23.976 fps
    Color space : YUV
    Chroma subsampling : 4:2:0
    Bit depth : 8 bits
    Scan type : Progressive
    Bits/(Pixel*Frame) : 0.273
    Stream size : 3.86 GiB (75%)
    Writing library : x264 core 125 r2208 d9d2288
    Encoding settings : cabac=1 / ref=8 / deblock=1:-3:-3 / analyse=0x3:0x113 / me=umh / subme=10 / psy=1 / psy_rd=1.00:0.05 / mixed_ref=1 / me_range=32 / chroma_me=1 / trellis=2 / 8x8dct=1 / cqm=0 / deadzone=21,11 / fast_pskip=0 / chroma_qp_offset=-2 / threads=12 / lookahead_threads=2 / sliced_threads=0 / nr=0 / decimate=1 / interlaced=0 / bluray_compat=0 / constrained_intra=0 / bframes=6 / b_pyramid=2 / b_adapt=2 / b_bias=0 / direct=3 / weightb=1 / open_gop=0 / weightp=2 / keyint=250 / keyint_min=23 / scenecut=40 / intra_refresh=0 / rc=2pass / mbtree=0 / bitrate=5796 / ratetol=1.0 / qcomp=0.70 / qpmin=0 / qpmax=69 / qpstep=4 / cplxblur=20.0 / qblur=0.5 / ip_ratio=1.40 / pb_ratio=1.30 / aq=2:0.90
    Language : English
    Default : Yes
    Forced : No

    Audio #1
    ID : 2
    Format : AC-3
    Format/Info : Audio Coding 3
    Mode extension : CM (complete main)
    Format settings, Endianness : Big
    Codec ID : A_AC3
    Duration : 1h 38mn
    Bit rate mode : Constant
    Bit rate : 192 Kbps
    Channel(s) : 2 channels
    Channel positions : Front: L R
    Sampling rate : 48.0 KHz
    Bit depth : 16 bits
    Compression mode : Lossy
    Stream size : 135 MiB (3%)
    Language : Russian
    Default : Yes
    Forced : No

    Audio #2
    ID : 3
    Format : DTS
    Format/Info : Digital Theater Systems
    Codec ID : A_DTS
    Duration : 1h 38mn
    Bit rate mode : Constant
    Bit rate : 1 510 Kbps
    Channel(s) : 6 channels
    Channel positions : Front: L C R, Side: L R, LFE
    Sampling rate : 48.0 KHz
    Bit depth : 24 bits
    Compression mode : Lossy
    Stream size : 1.03 GiB (20%)
    Language : Korean
    Default : No
    Forced : No

    Text
    ID : 4
    Format : UTF-8
    Codec ID : S_TEXT/UTF8
    Codec ID/Info : UTF-8 Plain Text
    Language : English
    Default : No
    Forced : No
    Скриншоты для ознакомления

    Размер скачиваемого торрента: 5.13 GB (5503508291 Bytes)

    Террор в прямом эфире / The Terror Live (2013) BDRip 720p | L2 скачать через торрент бесплатно
    загрузка...
    Рейтинг →
     (голосов: 1, оценка 5/5, голосовать можно 1 раз )

    Другие торренты по теме:

  • Террор в городке 2: Крюк Пилигрима. Коллекционное издание (2013) PC
  • Террор в прямом эфире / The Terror Live (2013) HDRip | L2 скачать через торрент бесплатно
  • Террор в резонансе / Zankyou no Terror (2014) HDTVRip | L2 скачать через торрент бесплатно
  • Террор в городке 3: Блеф Галдора. Коллекционное издание (2015) PC


    • Комментарии (0):

      Информация

      Информация

        Посетители, находящиеся в группе Гости, не могут оставлять комментарии в данной новости.

        ↓ Меню



        ↓ Опрос

        А Вы добавили сайт в закладки?
        Да
        Не


        Top 10 за месяц (Фильмы)