.
Авторизация | Регистрация
» » Рэмбо: Первая кровь / First Blood (1982) BDRip от New-Team скачать через торрент бесплатно




    Рэмбо: Первая кровь / First Blood (1982) BDRip от New-Team скачать через торрент бесплатно

    Опубликовал: Админ | Дата: 27-02-2015, 11:09 | Просмотров: 269

    Война одного человека


    Снималось в: США
    Создали в: Anabasis N.V., Elcajo Productions
    Категория жанра: боевик, триллер, криминал
    Создали в: 1982
    Время просмотра: 01:33:16

    Перевод текста: Профессиональный (многоголосый закадровый) (Киномания)
    Оригинальная аудиодорожка: нет
    Субтитры подготовлены: нет

    Главный режиссер: Тед Котчефф / Ted Kotcheff

    Актеры:
    Сильвестр Сталлоне, Ричард Кренна, Брайан Деннехи, Билл МакКинни, Джек Старретт, Майкл Толбот, Крис Малки, Джон МакЛиам, Альф Хамфриз, Дэвид Карузо...

    Сюжет:
    Он — эксперт. Эксперт по оружию, ножам и собственному телу. Он человек, специально обученный не замечать боль и погодные условия.
    Во Вьетнаме его задание было уничтожать вражеский личный состав. Много убивать. Истощать силы врага до полной победы. Рэмбо был лучший. На войне он был героем, а на родине, во имя которой проливалась кровь, он никому не нужен.
    Не способный приспособиться к мирной жизни Рэмбо путешествует автостопом по городам Америки, встречаясь с однополчанами. Путешествие прекращает провинциальный шериф, ненавидящий бродяг.
    Попавший в тюрьму по ложному обвинению, вкусивший унижений со стороны администрации, Рэмбо объявляет войну. Войну существующему отношению к ветеранам, беспределу официальных структур и главе местной полиции лично. Совершив фантастический побег из тюрьмы, Джон начинает партизанскую войну в местных лесах. Очень скоро ситуация выходит из под контроля властей и в маленький город вводят части регулярной армии. Бывший боевой командир Джона Рэмбо смог дать лишь один комментарий: Раз ты привел сюда так много людей, то приготовь побольше мешков для трупов.




    Исходник: BDRemux 1080p
    Тип релиза: BDRip
    Контейнер: AVI

    Информация о видео: 720x304 (2,35:1), 23,976 fps, XviD ~ 980 kbps avg, 0.187 bit/pixel
    Информация о звуке: 48 kHz, MP3 2.0, 128 kbps

    Раздача от:
    MediaInfo

    Общее
    Полное имя : Rembo.Pervaya.krov.1982.BDRip-745_New-team_by_AVP_Studio.avi
    Формат : AVI
    Формат/Информация : Audio Video Interleave
    Размер файла : 745 Мбайт
    Продолжительность : 1 ч. 33 м.
    Общий поток : 1117 Кбит/сек
    Программа кодирования : VirtualDubModRus 1.5.10.2 (build 2542/release)
    Библиотека кодирования : VirtualDubMod build 2542/release

    Видео
    Идентификатор : 0
    Формат : MPEG-4 Visual
    Профиль формата : Advanced Simple@L5
    Параметр BVOP формата : 1
    Параметр QPel формата : Нет
    Параметр GMC формата : Без точки перехода
    Параметр матрицы формата : Выборочная
    Идентификатор кодека : XVID
    Идентификатор кодека/Подсказка : XviD
    Продолжительность : 1 ч. 33 м.
    Битрейт : 980 Кбит/сек
    Ширина : 720 пикселей
    Высота : 304 пикселя
    Соотношение сторон : 2,35:1
    Частота кадров : 23,976 кадра/сек
    Цветовое пространство : YUV
    Субдискретизация насыщенности : 4:2:0
    Битовая глубина : 8 бит
    Тип развёртки : Прогрессивная
    Метод сжатия : С потерями
    Бит/(Пиксели*Кадры) : 0.187
    Размер потока : 654 Мбайт (88%)
    Библиотека кодирования : XviD 73

    Аудио
    Идентификатор : 1
    Формат : MPEG Audio
    Версия формата : Version 1
    Профиль формата : Layer 3
    Идентификатор кодека : 55
    Идентификатор кодека/Подсказка : MP3
    Продолжительность : 1 ч. 33 м.
    Вид битрейта : Постоянный
    Битрейт : 128 Кбит/сек
    Каналы : 2 канала
    Частота : 48,0 КГц
    Метод сжатия : С потерями
    Размер потока : 85,3 Мбайт (11%)
    Выравнивание : Соединение по промежуткам
    Продолжительность промежутка : 42 мс. (1,00 видеокадр)
    Время предзагрузки промежутка : 504 мс.
    Библиотека кодирования : LAME3.99r
    Залил: AVPStudio
    Размер скачиваемого торрента: 745.08 MB (781275136 Bytes)


    Рэмбо: Первая кровь / First Blood (1982) BDRip от New-Team скачать через торрент бесплатно
    загрузка...
    Рейтинг →
     (голосов: 1, оценка 3/5, голосовать можно 1 раз )

    Другие торренты по теме:

  • Рэмбо: Первая кровь / First Blood (1982) HDRip от Youtracker | P | КПК торрент скачать бесплатно
  • Рэмбо: Первая кровь 2 / Rambo: First Blood Part II (1985) HDRip от Youtracker | P | КПК торрент скачать бесплатно
  • Рэмбо: Первая кровь / First Blood (1982) BDRip 1080p от BT-Club скачать через торрент бесплатно
  • Рэмбо: Первая кровь 2 / Rambo: First Blood Part II (1985) BDRip 1080p от BT-Club скачать через торрент бесплатно
  • Рэмбо: Первая кровь / First Blood (1982) BDRip-AVC от New-Team торрент скачать бесплатно
  • Рэмбо: Первая кровь 2 / Rambo: First Blood Part II (1985) BDRip-AVC | iPad | P торрент скачать бесплатно
  • Рэмбо: Первая кровь / First Blood (1982) BDRip-AVC | iPad | P торрент скачать бесплатно
  • Рэмбо: Первая кровь / First Blood (1982) DVD9 | D скачать через торрент бесплатно


    • Комментарии (0):

      Информация

      Информация

        Посетители, находящиеся в группе Гости, не могут оставлять комментарии в данной новости.

        ↓ Меню



        ↓ Опрос

        А Вы добавили сайт в закладки?
        Да
        Не


        Top 10 за неделю (Фильмы)