.
Авторизация | Регистрация
» » Анжелика и Султан / Angelique et le Sultan (1968) HDTVRip от Leon-masl торрент скачать бесплатно




    Анжелика и Султан / Angelique et le Sultan (1968) HDTVRip от Leon-masl торрент скачать бесплатно

    Опубликовал: Админ | Дата: 27-02-2015, 11:09 | Просмотров: 312



    Детально о кино
    Русское название: Анжелика и Султан
    Русское название в мировом прокате: Angelique et le Sultan
    Создали в: 1968
    Категория жанра: Мелодрама, приключения
    Главный режиссер: Бернар Бордери
    Актеры: Мишель Мерсье, Жан-Клод Паскаль, Робер Оссейн, Хельмут Шнайдер, Али Бен Айед, Анри Коган, Роже Пика, Жак Санти, Эрно Криса, Сигхардт Рупп

    Сюжет фильма:
    Очередная серия приключений знаменитой французской красавицы. Отвергнутая Версалем и преследуемая королевскими слугами,Анжелика оказывается на Востоке. Захваченная в плен воинами арабского султана, она попадает к нему в гарем, но в очередной раз доказывает свою преданность и любовь к мужу. Единственное чувство,согревающее сердце Анжелики, - это надежда вновь обрести своего возлюбленного....



    Снималось в: Франция, Италия, Германия (ФРГ), CICC, Cin?phonic, Divina-Film, Fono Roma, Francos Films, Gloria-Film GmbH
    Время просмотра: 01:17:59
    Перевод текста: Дублированный

    Файл
    Кодек для видео: XviD
    Качество фильма: HDTVRip
    Информация о видео: 704x304, 25.000 fps, 2296 kbps
    Информация о звуке: AC3, 192 kbps, 2 ch, 48.0 khz
    MI
    Общее
    Полное имя : Anzhelika.i.sultan.1968.HDTVRip.avi
    Формат : AVI
    Формат/Информация : Audio Video Interleave
    Размер файла : 1,36 Гбайт
    Продолжительность : 1 ч. 17 м.
    Общий поток : 2498 Кбит/сек
    Программа кодирования : VirtualDubMod 1.5.10.3 | www.virtualdub-fr.org || (build 2550/release)
    Библиотека кодирования : VirtualDubMod build 2550/release

    Видео
    Идентификатор : 0
    Формат : MPEG-4 Visual
    Профиль формата : Advanced Simple@L5
    Параметр BVOP формата : 1
    Параметр QPel формата : Нет
    Параметр GMC формата : Без точки перехода
    Параметр матрицы формата : Выборочная
    Идентификатор кодека : XVID
    Идентификатор кодека/Подсказка : XviD
    Продолжительность : 1 ч. 17 м.
    Битрейт : 2296 Кбит/сек
    Ширина : 704 пикс.
    Высота : 304 пикс.
    Соотношение сторон : 2,35:1
    Частота кадров : 25,000 кадр/сек
    Цветовое пространство : YUV
    Подвыборка цветности : 4:2:0
    Битовая глубина : 8 бит
    Тип развёртки : Прогрессивная
    Метод сжатия : С потерями
    Бит/(Пиксели*Кадры) : 0.429
    Размер потока : 1,25 Гбайт (92%)
    Библиотека кодирования : XviD 73

    Аудио
    Идентификатор : 1
    Формат : AC-3
    Формат/Информация : Audio Coding 3
    Расширение режима : CM (complete main)
    Идентификатор кодека : 2000
    Продолжительность : 1 ч. 17 м.
    Вид битрейта : Постоянный
    Битрейт : 192 Кбит/сек
    Канал(ы) : 2 канала(ов)
    Расположение каналов : Front: L R
    Частота : 48,0 КГц
    Битовая глубина : 16 бит
    Метод сжатия : С потерями
    Размер потока : 107 Мбайт (8%)
    Выравнивание : Разделение по промежуткам
    Продолжительность промежутка : 40 мс. (1,00 видеокадр)
    Время предзагрузки промежутка : 500 ms
    Скриншоты для ознакомления


    Релиз подготовил: Leon-masl
    Залил: leon-masl
    Размер скачиваемого торрента: 1.36 GB (1461022720 Bytes)

    Анжелика и Султан / Angelique et le Sultan (1968) HDTVRip от Leon-masl торрент скачать бесплатно
    загрузка...
    Рейтинг →
     (голосов: 1, оценка 4/5, голосовать можно 1 раз )

    Другие торренты по теме:

  • Анжелика Рута - Чистые ливни (2013) MP3 торрент скачать бесплатно
  • Анжелика Агурбаш - Концерт в Кремлевском дворце (2011) DVB торрент скачать бесплатно
  • Анжелика Варум - Сумасшедшая (2013) MP3 торрент скачать бесплатно
  • Анжелика Варум - Дискография (1991-2011) МР3 от IMA-Sound торрент скачать бесплатно
  • Анжелика Уивер: Поймай меня, когда сможешь. Коллекционное издание (2013) PC торрент скачать бесплатно
  • Анжелика Варум - Дискография (1991-2013) MP3 от IMA-Sound торрент скачать бесплатно
  • Анжелика, маркиза ангелов (2014) скачать через торрент бесплатно
  • Великолепная Анжелика / Merveilleuse Angelique (1965) HDTV 1080i от ClubTorrent | D скачать через торрент бесплатно


    • Комментарии (0):

      Информация

      Информация

        Посетители, находящиеся в группе Гости, не могут оставлять комментарии в данной новости.

        ↓ Меню



        ↓ Опрос

        А Вы добавили сайт в закладки?
        Да
        Не


        Top 10 за неделю (Фильмы)