.
Авторизация | Регистрация
» » Марьян / Maryan (2013) DVDRip от MediaClub скачать через торрент бесплатно




    Марьян / Maryan (2013) DVDRip от MediaClub скачать через торрент бесплатно

    Опубликовал: Админ | Дата: 27-02-2015, 11:09 | Просмотров: 285



    Детально о кино
    Русское название: Марьян
    Русское название в мировом прокате: Maryan
    Создали в: 2013
    Категория жанра: Триллер, драма, мелодрама
    Главный режиссер: Ганапатхи Бхарат
    Актеры: Дхануш, Парвати, Салим Кумар, Ума Рияз Кхан, Аппукутту

    Сюжет фильма: Марьян готовится вернуться домой после двухгодичного рабочего контракта в Африке. Он с нетерпением ждет встречи со своей невестой, Пани. Непредвиденные обстоятельства поставят под сомнение не только их встречу, но и всю дальнейшую жизнь. Это фильм о надежде, о выживании и, конечно, о любви...



    Снималось в: Индия
    Киностудия: Aascar Film P., Bharatbala Productions
    Перевод текста: Любительский (одноголосый) (datynet)
    Время просмотра: 02:18:25

    Файл
    Качество фильма: DVDRip
    Информация о видео: DivX, 1317 Кбит/с, 720х304
    Информация о звуке : Русский (MP3, 2 ch, 192 Кбит/с)

    Релиз подготовил: от
    Озвучка: datynet (mediaclub)
    Перевод текста: Soniya (форум indomania)
    Информация о видеоряд: Vasantsena (форум indomania)


    Семпл

    Инфо
    Общее
    Полное имя : D:РелизыMaryan.2013.DVDRip.MediaClub.avi
    Формат : AVI
    Формат/Информация : Audio Video Interleave
    Размер файла : 1,47 Гбайт
    Продолжительность : 2 ч. 18 м.
    Общий поток : 1519 Кбит/сек
    Программа кодирования : VirtualDubMod 1.5.10.3 | www.virtualdub-fr.org || (build 2550/release)
    Библиотека кодирования : VirtualDub build 34753/release

    Видео
    Идентификатор : 0
    Формат : MPEG-4 Visual
    Профиль формата : Advanced Simple@L5
    Параметр BVOP формата : 1
    Параметр QPel формата : Нет
    Параметр GMC формата : Без точки перехода
    Параметр матрицы формата : Default (MPEG)
    Идентификатор кодека : DX50
    Идентификатор кодека/Подсказка : DivX 5
    Продолжительность : 2 ч. 18 м.
    Битрейт : 1317 Кбит/сек
    Ширина : 720 пикселей
    Высота : 304 пикселя
    Соотношение сторон : 2,35:1
    Частота кадров : 25,000 кадров/сек
    Цветовое пространство : YUV
    Субдискретизация насыщенности : 4:2:0
    Битовая глубина : 8 бит
    Тип развёртки : Прогрессивная
    Метод сжатия : С потерями
    Бит/(Пиксели*Кадры) : 0.241
    Размер потока : 1,27 Гбайт (87%)
    Библиотека кодирования : XviD 1.2.1 (UTC 2008-12-04)

    Аудио
    Идентификатор : 1
    Формат : MPEG Audio
    Версия формата : Version 1
    Профиль формата : Layer 3
    Идентификатор кодека : 55
    Идентификатор кодека/Подсказка : MP3
    Продолжительность : 2 ч. 18 м.
    Вид битрейта : Постоянный
    Битрейт : 192 Кбит/сек
    Каналы : 2 канала
    Частота : 44,1 КГц
    Метод сжатия : С потерями
    Размер потока : 190 Мбайт (13%)
    Выравнивание : Разделение по промежуткам
    Продолжительность промежутка : 40 мс. (1,00 видеокадр)
    Время предзагрузки промежутка : 500 мс.


    Скриншоты для ознакомления


    Залил: kurupai
    Размер скачиваемого торрента: 1.47 GB (1576971508 Bytes)

    Марьян / Maryan (2013) DVDRip от MediaClub скачать через торрент бесплатно
    загрузка...
    Рейтинг →
     (голосов: 1, оценка 4/5, голосовать можно 1 раз )

    Другие торренты по теме:



      Комментарии (0):

      Информация

      Информация

        Посетители, находящиеся в группе Гости, не могут оставлять комментарии в данной новости.

        ↓ Меню



        ↓ Опрос

        А Вы добавили сайт в закладки?
        Да
        Не


        Top 10 за неделю (Фильмы)