.
Авторизация | Регистрация
Хочешь лучшие торренты? Добавь свой email!
Добавить
» » Неукротимая Анжелика / Indomptable Angelique (1967) HDTVRip от Leon-masl скачать через торрент бесплатно




    Неукротимая Анжелика / Indomptable Angelique (1967) HDTVRip от Leon-masl скачать через торрент бесплатно

    Опубликовал: Админ | Дата: 27-02-2015, 11:09 | Просмотров: 308



    Детально о кино
    Русское название: Неукротимая Анжелика
    Русское название в мировом прокате: Indomptable Angelique
    Создали в: 1967
    Категория жанра: Приключения, мелодрама, экранизация
    Главный режиссер: Бернар Бордери
    Актеры: Мишель Мерсье, Робер Оссейн, Жан Рошфор, Этторе Манни, Бруно Дитрих, Кристиан Роде, Роже Пика, Паскуаль Мартино, Зигхардт Рупп, Ренато Де Кармине, Артуро Доминичи, Мино Доро, Жан-Луи Джемма

    Сюжет фильма:
    Анжелика отправляется на галере на поиски своего мужа Жоффрея де Пейрака. В плавании на корабль нападают пираты, которые продают Анжелику в рабство. Ее счастливым покупателем оказывается не кто иной как Жоффрей. Но, когда все проблемы кажутся разрешенными, Анжелику вновь похищают...




    Снималось в: Франция, Германия (ФРГ), Италия , CICC, Cin?phonic, Films Borderie, Fono Roma, Francos Films, Gloria-Film GmbH
    Время просмотра: 01:19:43
    Перевод текста: Дублированный

    Файл
    Кодек для видео: XviD
    Качество фильма: HDTVRip
    Информация о видео: 720x304, 25.000 fps, 2262 kbps
    Информация о звуке: AC3, 192 kbps, 2 ch, 48.0 khz
    MI
    Общее
    Полное имя : Neukrotimaja.Anzhelika.1967.HDTVRip.avi
    Формат : AVI
    Формат/Информация : Audio Video Interleave
    Размер файла : 1,36 Гбайт
    Продолжительность : 1 ч. 19 м.
    Общий поток : 2464 Кбит/сек
    Программа кодирования : VirtualDubMod 1.5.10.3 | www.virtualdub-fr.org || (build 2550/release)
    Библиотека кодирования : VirtualDubMod build 2550/release

    Видео
    Идентификатор : 0
    Формат : MPEG-4 Visual
    Профиль формата : Advanced Simple@L5
    Параметр BVOP формата : 1
    Параметр QPel формата : Нет
    Параметр GMC формата : Без точки перехода
    Параметр матрицы формата : Выборочная
    Идентификатор кодека : XVID
    Идентификатор кодека/Подсказка : XviD
    Продолжительность : 1 ч. 19 м.
    Битрейт : 2262 Кбит/сек
    Ширина : 720 пикс.
    Высота : 304 пикс.
    Соотношение сторон : 2,35:1
    Частота кадров : 25,000 кадр/сек
    Цветовое пространство : YUV
    Подвыборка цветности : 4:2:0
    Битовая глубина : 8 бит
    Тип развёртки : Прогрессивная
    Метод сжатия : С потерями
    Бит/(Пиксели*Кадры) : 0.413
    Размер потока : 1,25 Гбайт (92%)
    Библиотека кодирования : XviD 73

    Аудио
    Идентификатор : 1
    Формат : AC-3
    Формат/Информация : Audio Coding 3
    Расширение режима : CM (complete main)
    Идентификатор кодека : 2000
    Продолжительность : 1 ч. 19 м.
    Вид битрейта : Постоянный
    Битрейт : 192 Кбит/сек
    Канал(ы) : 2 канала(ов)
    Расположение каналов : Front: L R
    Частота : 48,0 КГц
    Битовая глубина : 16 бит
    Метод сжатия : С потерями
    Размер потока : 109 Мбайт (8%)
    Выравнивание : Разделение по промежуткам
    Продолжительность промежутка : 40 мс. (1,00 видеокадр)
    Время предзагрузки промежутка : 500 ms
    Скриншоты для ознакомления


    Релиз подготовил: Leon-masl
    Залил: leon-masl
    Размер скачиваемого торрента: 1.36 GB (1461682176 Bytes)

    Неукротимая Анжелика / Indomptable Angelique (1967) HDTVRip от Leon-masl скачать через торрент бесплатно
    загрузка...
    Рейтинг →
     (голосов: 1, оценка 3/5, голосовать можно 1 раз )

    Другие торренты по теме:

  • Неукротимая Анжелика / Indomptable Angelique (1967) HDTV 1080i от ClubTorrent | D
  • Неукротимая Анжелика / Indomptable Angelique (1967) BDRip by msltel | D, P
  • Неукротимая Анжелика / Indomptable Angelique (1967) BDRip 720p by msltel | D, P скачать через торрент бесплатно
  • Неукротимая Анжелика / Indomptable Angelique (1967) BDRip 1080p by msltel | D, P
  • Неукротимая Анжелика / Indomptable Angelique (1967) BDRip от HQCLUB
  • Неукротимая Анжелика / Indomptable Anglique (1967) HDRip от Scarabey | D скачать через торрент бесплатно


    • Комментарии (0):

      Информация

      Информация

        Посетители, находящиеся в группе Гости, не могут оставлять комментарии в данной новости.

        ↓ Меню



        ↓ Опрос

        А Вы добавили сайт в закладки?
        Да
        Не


        Top 10 за месяц (Фильмы)