.
Авторизация | Регистрация
Хочешь лучшие торренты? Добавь свой email!
Добавить
» » Маньяк-убийца / Борец-Маньяк / Рестлер-Маньяк / El Mascarado Massacre (2006) HDRip от Deadmauvlad | P скачать через торрент бесплатно




    Маньяк-убийца / Борец-Маньяк / Рестлер-Маньяк / El Mascarado Massacre (2006) HDRip от Deadmauvlad | P скачать через торрент бесплатно

    Опубликовал: Админ | Дата: 27-02-2015, 11:09 | Просмотров: 333

    Маньяк-убийца / El Mascarado Massacre





    Создали в: 2006
    Снималось в: США
    Категория жанра: ужасы, спорт
    Время просмотра: 01:11:16
    Перевод текста: Профессиональный (многоголосый, закадровый)
    Русские субтитры: нет

    Главный режиссер: Джесси Бэджет / Jesse Baget

    Актеры: Рэй Мистерио,Ирвин Кийес,Адам Хасс,Лэйла Раццари,Маргарет Скарборо,Джереми Радин,Зак Беннетт

    Сюжет: По пути в местечко Каба-Сан Лукас съемочная группа низкобюджетного фильма теряется и попадает в Кровь богов, город-привидение, по которому ходят леденящие кровь легенды о безумном мексиканском бойце. Глава группы, начинающий режиссер Альфонс, решает, что гнетущая атмосфера городка идеально подойдет для съемок. Камера сфокусирована, свет выставлен.

    Но, стоило режиссеру сказать Мотор, как знаменитый безумец Лучадор, человек в маске, начинает свою собственную игру. Одного за другим, маньяк похищает, пытает и убивает членов съемочной группы. Оставшимся в живых остается только одно: победить безумца или умереть.

    Качество фильма: HDRip
    Тип видео: AVI
    Информация о видео кодек: DivX
    Информация о звуке кодек: MP3
    Информация о видео: 720x400 (1.80:1), 25 fps, XviD build 73 ~1303 kbps avg, 0.18 bit/pixel
    Информация о звуке: 48 kHz, AC3 Dolby Digital, 2/0 (L,R) ch, ~128 kbps

    Скриншоты для ознакомления

    MI
    Общее
    Полное имя : D:Рипы выкладка DeadmauvladРипы готовыеМаньяк-убийца.HDRip.MVO.Deadmauvlad.avi
    Формат : AVI
    Формат/Информация : Audio Video Interleave
    Размер файла : 747 Мбайт
    Продолжительность : 1 ч. 12 м.
    Общий поток : 1441 Кбит/сек
    Название фильма : Борец-Маньяк.HDRip.MVO.Deadmauvlad
    Режиссёр : Deadmauvlad
    Жанр : Ужасы, Треш , Драма
    Программа кодирования : VirtualDubMod 1.5.10.3 | www.virtualdub-fr.org || (build 2550/release)
    Формат оригинала/Имя : Фильм
    Правообладатель : Deadmauvlad Team;s

    Видео
    Идентификатор : 0
    Формат : MPEG-4 Visual
    Профиль формата : Advanced Simple@L5
    Параметр BVOP формата : 4
    Параметр QPel формата : Да
    Параметр GMC формата : 3 точки перехода
    Параметр матрицы формата : Default (MPEG)
    Идентификатор кодека : XVID
    Идентификатор кодека/Подсказка : XviD
    Продолжительность : 1 ч. 12 м.
    Битрейт : 1304 Кбит/сек
    Ширина : 720 пикселей
    Высота : 400 пикселей
    Соотношение сторон : 16:9
    Частота кадров : 25,000 кадров/сек
    Цветовое пространство : YUV
    Субдискретизация насыщенности : 4:2:0
    Битовая глубина : 8 бит
    Тип развёртки : Прогрессивная
    Метод сжатия : С потерями
    Бит/(Пиксели*Кадры) : 0.181
    Размер потока : 676 Мбайт (90%)
    Библиотека кодирования : XviD 73

    Аудио
    Идентификатор : 1
    Формат : AC-3
    Формат/Информация : Audio Coding 3
    Расширение режима : CM (complete main)
    Параметр Endianness формата : Big
    Идентификатор кодека : 2000
    Продолжительность : 1 ч. 12 м.
    Вид битрейта : Постоянный
    Битрейт : 128 Кбит/сек
    Каналы : 2 канала
    Расположение каналов : Front: L R
    Частота : 48,0 КГц
    Битовая глубина : 16 бит
    Метод сжатия : С потерями
    Размер потока : 66,3 Мбайт (9%)
    Выравнивание : Разделение по промежуткам
    Продолжительность промежутка : 40 мс. (1,00 видеокадр)
    Время предзагрузки промежутка : 500 мс.

    МИНИ Рицезия от меня
    Американский фильм ужасов Маньяк-убийца снятый с поистине мексиканским колоритом. Кино погружает зрителей в мексиканские легенды, а заодно дает возможность посмотреть на злоключения группы неудачливых кинематографистов. Команда киношников во главе с режиссером Альфонсом путешествует по Мексике в поисках хорошего места для съемок. Бюджет у фильма ограничен, и поэтому съемочная группа ищет приличные натуральные декорации. В маленьком захолустном городке с настораживающим названием Кровь богов случается небольшая авария, и двигатель автомобиля выходит из строя. Команда вынуждена остановиться здесь на неопределенный срок. Альфонс решает, что пейзажи города идеально подходят своей мрачностью для его фильма, так что кино начинают снимать на месте. Никто из случайных гостей не воспринял всерьез местную легенду об обезумевшем бойце мексиканского рестлинга. А тем временем зловещий Эль Маскарадо оказался вполне реальной угрозой, и он не остановится, пока не сорвет маски со всех своих воображаемых противников. © Deadmauvlad

    Semple
    Залил: DJ_V.K_TV
    Размер скачиваемого торрента: 746.91 MB (783192064 Bytes)

    Маньяк-убийца / Борец-Маньяк / Рестлер-Маньяк / El Mascarado Massacre (2006) HDRip от Deadmauvlad | P скачать через торрент бесплатно
    загрузка...
    Рейтинг →
     (голосов: 1, оценка 3/5, голосовать можно 1 раз )

    Другие торренты по теме:

  • Серийный убийца / Маньяк / Serial killer (1995) DVDRip от olegek70 | P


    • Комментарии (0):

      Информация

      Информация

        Посетители, находящиеся в группе Гости, не могут оставлять комментарии в данной новости.

        ↓ Меню



        ↓ Опрос

        А Вы добавили сайт в закладки?
        Да
        Не


        Top 10 за месяц (Фильмы)