.
Авторизация | Регистрация
» » Эйр Америка / Air America (1990) BDRip-AVC | P, A скачать через торрент бесплатно




    Эйр Америка / Air America (1990) BDRip-AVC | P, A скачать через торрент бесплатно

    Опубликовал: Админ | Дата: 27-02-2015, 11:09 | Просмотров: 366



    Детально о кино
    Русское название: Эйр Америка
    Русское название в мировом прокате: Air America
    Создали в: 1990
    Категория жанра: боевик, комедия

    Главный режиссер: Роджер Споттисвуд

    Актеры: Мел Гибсон, Роберт Дауни-мл., Нэнси Трэвис, Кен Дженкинс, Дэвид Маршалл Грант, Лейн Смит, Арт ЛаФлер, Нед Айзенберг, Маршалл Белл, Дэвид Бауи, Берт Куок, Тим Томерсон, Харви Джейсон, Эрни Лайвли, Берк Байрнс, Грег Кин, Майкл Дудикофф, Синяи Пленжпанит, Яни Трэмод, Васун Уттамаёдин, Джон Ладальски

    Сюжет фильма:
    Кто сказал что Вьетнам — это страшно? Может быть для кого-то, но не для них! Контрабанда, ЦРУ, приключения — что может быть лучше для двух бесшабашных пилотов! Они готовы доставить что угодно, кого угодно — им все нипочем, лишь бы платили.




    Снималось в: США
    Время просмотра: 01:52:36
    Перевод текста: Профессиональный (многоголосый, закадровый), Авторский одноголосый
    Субтитры: русские, английские

    Качество фильма: BDRip-AVC
    Тип видео: MKV
    Информация о видео: H.264, 1200x512 (2.35:1), 23.976 fps, ~2806 kbps, 0.190 b/px
    Информация о звуке 1: Русский: AC3, 48 kHz, 6 ch, 448 kbps | Многолосый
    Информация о звуке 2: Русский: AС3, 48 KHz, 6 ch, 448 kbps | Doctor Joker
    Информация о звуке 3: Русский: AC3, 48 kHz, 2 ch, 256 kbps | Гаврилов
    Информация о звуке 4: Русский: AС3, 48 KHz, 6 ch, 448 kbps | Визгунов
    Информация о звуке 5: Оригинал: AС3, 48 KHz, 6 ch, 448 kbp

    MediaInfo
    Format : Matroska
    Format version : Version 2
    File size : 3.82 GiB
    Duration : 1h 52mn
    Overall bit rate : 4 854 Kbps
    Encoded date : UTC 2014-01-09 22:50:34
    Writing application : mkvmerge v5.3.0 (;I could have danced;) built on Feb 9 2012 10:38:07
    Writing library : libebml v1.2.3 libmatroska v1.3.0
    Attachment : Yes

    Video
    ID : 1
    Format : AVC
    Format/Info : Advanced Video Codec
    Format profile : High@L4.1
    Format settings, CABAC : Yes
    Format settings, ReFrames : 10 frames
    Codec ID : V_MPEG4/ISO/AVC
    Duration : 1h 52mn
    Bit rate : 2 806 Kbps
    Width : 1 200 pixels
    Height : 512 pixels
    Display aspect ratio : 2.35:1
    Frame rate mode : Constant
    Frame rate : 23.976 fps
    Color space : YUV
    Chroma subsampling : 4:2:0
    Bit depth : 8 bits
    Scan type : Progressive
    Bits/(Pixel*Frame) : 0.190
    Stream size : 2.13 GiB (56%)
    Title : Air America (1990)
    Writing library : x264 core 105 r1732 2b04482
    Encoding settings : cabac=1 / ref=10 / deblock=1:-3:-2 / analyse=0x3:0x133 / me=umh / subme=10 / psy=1 / psy_rd=0.90:0.05 / mixed_ref=1 / me_range=32 / chroma_me=1 / trellis=2 / 8x8dct=1 / cqm=0 / deadzone=21,11 / fast_pskip=0 / chroma_qp_offset=-3 / threads=6 / sliced_threads=0 / nr=0 / decimate=1 / interlaced=0 / constrained_intra=0 / bframes=8 / b_pyramid=2 / b_adapt=2 / b_bias=0 / direct=3 / weightb=1 / open_gop=0 / weightp=2 / keyint=250 / keyint_min=23 / scenecut=40 / intra_refresh=0 / rc_lookahead=80 / rc=2pass / mbtree=1 / bitrate=2806 / ratetol=1.0 / qcomp=0.65 / qpmin=10 / qpmax=51 / qpstep=4 / cplxblur=20.0 / qblur=0.5 / ip_ratio=1.40 / aq=2:1.00 / zones=154219,161996,q=30
    Language : English
    Default : Yes
    Forced : No
    Matrix coefficients : BT.709

    Audio #1
    ID : 2
    Format : AC-3
    Format/Info : Audio Coding 3
    Mode extension : CM (complete main)
    Format settings, Endianness : Big
    Codec ID : A_AC3
    Duration : 1h 52mn
    Bit rate mode : Constant
    Bit rate : 448 Kbps
    Channel(s) : 6 channels
    Channel positions : Front: L C R, Side: L R, LFE
    Sampling rate : 48.0 KHz
    Bit depth : 16 bits
    Compression mode : Lossy
    Stream size : 361 MiB (9%)
    Title : многоголосый
    Language : Russian
    Default : Yes
    Forced : No

    Audio #2
    ID : 3
    Format : AC-3
    Format/Info : Audio Coding 3
    Mode extension : CM (complete main)
    Format settings, Endianness : Big
    Codec ID : A_AC3
    Duration : 1h 52mn
    Bit rate mode : Constant
    Bit rate : 448 Kbps
    Channel(s) : 6 channels
    Channel positions : Front: L C R, Side: L R, LFE
    Sampling rate : 48.0 KHz
    Bit depth : 16 bits
    Compression mode : Lossy
    Stream size : 361 MiB (9%)
    Title : VO Алексей Doctor_Joker Матвеев
    Language : Russian
    Default : No
    Forced : No

    Audio #3
    ID : 4
    Format : AC-3
    Format/Info : Audio Coding 3
    Mode extension : CM (complete main)
    Format settings, Endianness : Big
    Codec ID : A_AC3
    Duration : 1h 52mn
    Bit rate mode : Constant
    Bit rate : 256 Kbps
    Channel(s) : 2 channels
    Channel positions : Front: L R
    Sampling rate : 48.0 KHz
    Bit depth : 16 bits
    Compression mode : Lossy
    Delay relative to video : 42s 0ms
    Stream size : 206 MiB (5%)
    Title : Gavrilov
    Language : Russian
    Default : No
    Forced : No

    Audio #4
    ID : 5
    Format : AC-3
    Format/Info : Audio Coding 3
    Mode extension : CM (complete main)
    Format settings, Endianness : Big
    Codec ID : A_AC3
    Duration : 1h 52mn
    Bit rate mode : Constant
    Bit rate : 448 Kbps
    Channel(s) : 6 channels
    Channel positions : Front: L C R, Side: L R, LFE
    Sampling rate : 48.0 KHz
    Bit depth : 16 bits
    Compression mode : Lossy
    Stream size : 361 MiB (9%)
    Title : Авторский Визгунов
    Language : Russian
    Default : No
    Forced : No

    Audio #5
    ID : 6
    Format : AC-3
    Format/Info : Audio Coding 3
    Mode extension : CM (complete main)
    Format settings, Endianness : Big
    Codec ID : A_AC3
    Duration : 1h 52mn
    Bit rate mode : Constant
    Bit rate : 448 Kbps
    Channel(s) : 6 channels
    Channel positions : Front: L C R, Side: L R, LFE
    Sampling rate : 48.0 KHz
    Bit depth : 16 bits
    Compression mode : Lossy
    Stream size : 361 MiB (9%)
    Title : Original
    Language : English
    Default : No
    Forced : No

    Text #1
    ID : 7
    Format : UTF-8
    Codec ID : S_TEXT/UTF8
    Codec ID/Info : UTF-8 Plain Text
    Title : Алексей Doctor_Joker Матвеев
    Language : Russian
    Default : Yes
    Forced : No

    Text #2
    ID : 8
    Format : UTF-8
    Codec ID : S_TEXT/UTF8
    Codec ID/Info : UTF-8 Plain Text
    Language : English
    Default : No
    Forced : No

    Menu
    00:00:00.000 : en:Chapter 1
    00:06:57.166 : en:Chapter 2
    00:11:12.546 : en:Chapter 3
    00:19:28.166 : en:Chapter 4
    00:24:22.710 : en:Chapter 5
    00:32:07.508 : en:Chapter 6
    00:38:01.195 : en:Chapter 7
    00:42:56.282 : en:Chapter 8
    00:48:13.556 : en:Chapter 9
    00:53:57.943 : en:Chapter 10
    00:57:43.001 : en:Chapter 11
    01:02:44.844 : en:Chapter 12
    01:07:41.223 : en:Chapter 13
    01:14:13.115 : en:Chapter 14
    01:23:29.504 : en:Chapter 15
    01:35:35.020 : en:Chapter 16

    Скриншоты для ознакомления

    Размер скачиваемого торрента: 3.82 GB (4099942029 Bytes)

    Эйр Америка / Air America (1990) BDRip-AVC | P, A скачать через торрент бесплатно
    загрузка...
    Рейтинг →
     (голосов: 1, оценка 3/5, голосовать можно 1 раз )

    Другие торренты по теме:



      Комментарии (0):

      Информация

      Информация

        Посетители, находящиеся в группе Гости, не могут оставлять комментарии в данной новости.

        ↓ Меню



        ↓ Опрос

        А Вы добавили сайт в закладки?
        Да
        Не


        Top 10 за неделю (Фильмы)