.
Авторизация | Регистрация
» » Королевская свадьба / Royal Wedding / Wedding Bells (1951) DVDRip | P2 скачать через торрент бесплатно




    Королевская свадьба / Royal Wedding / Wedding Bells (1951) DVDRip | P2 скачать через торрент бесплатно

    Опубликовал: Админ | Дата: 27-02-2015, 11:09 | Просмотров: 292

    Королевская свадьба / Royal Wedding (Wedding Bells)

    Русское название: Королевская свадьба
    Русское название в мировом прокате: Royal Wedding (Wedding Bells)
    Создали в: 1951
    Категория жанра: Мюзикл, мелодрама, комедия


    Главный режиссер: Стэнли Донен

    Актеры: Фред Астер, Джейн Пауэлл, Питер Лоуфорд, Сара Черчилль, Кинен Уинн, Альберт Шарп, Беа Аллен, Уилсон Бендж, Маргарет Берт, Френсис Бетенкур


    Сюжет фильма:
    Близится великий день - принцесса Елизавета выходит замуж, а значит, предстоят тяжелые деньки. Придется много веселиться, пить и петь, танцевать и вкушать разнообразные яства - короче очень тяжелые деньки ожидают героев этого фильма, брата и сестричку, роли которых исполняют великие Фред Астер и Джейн Пауэлл. Никто не знает своего будущего. Вот и Астер не знает, что его ждет любовь к танцовщице, а Пауэлл влюбится в самого лорда.





    Снималось в: США, Metro-Goldwyn-Mayer (MGM)
    Время просмотра: 01:33:03
    Перевод текста: Профессиональный двухголосый


    Качество фильма: DVDRip
    Информация о видео: XviD, 2100 Кбит/с, 640x480, 23.976 кадр/с
    Информация о звуке 1: Русский (AC3, 2 ch, 192 Кбит/с) - Профессиональный двухголосый (закадровый) - ГТРК Культура
    Информация о звуке 2: Русский (AC3, 2 ch, 192 Кбит/с) - Профессиональный двухголосый (закадровый) - НТВ по заказу НТВ (внешним файлом)
    Информация о звуке 3: Русский (AC3, 2 ch, 192 Кбит/с) - Профессиональный двухголосый (закадровый) - ООО Светла (внешним файлом)
    Информация о звуке 4: Русский (AC3, 2 ch, 192 Кбит/с) - Профессиональный двухголосый (закадровый) - DVD Magic (внешним файлом)
    Информация о звуке 5: Английский (AC3, 1 ch, 192 Кбит/с) - Оригинальный английский (внешним файлом)


    Релиз: bhajana108


    Скриншоты для ознакомления




    MediaInfo
    Общее
    Полное имя : E:Royal_Wedding_1951Royal_Wedding.avi
    Формат : AVI
    Формат/Информация : Audio Video Interleave
    Размер файла : 1,50 Гбайт
    Продолжительность : 1 ч. 33 м.
    Общий поток : 2301 Кбит/сек
    Программа кодирования : VirtualDubModRus 1.5.10.2 (build 2542/release)
    Библиотека кодирования : VirtualDubMod build 2542/release

    Видео
    Идентификатор : 0
    Формат : MPEG-4 Visual
    Профиль формата : Advanced Simple@L5
    Параметр BVOP формата : 2
    Параметр QPel формата : Нет
    Параметр GMC формата : Без точки перехода
    Параметр матрицы формата : Default (MPEG)
    Идентификатор кодека : XVID
    Идентификатор кодека/Подсказка : XviD
    Продолжительность : 1 ч. 33 м.
    Битрейт : 2100 Кбит/сек
    Ширина : 640 пикселей
    Высота : 480 пикселей
    Соотношение сторон : 4:3
    Частота кадров : 23,976 кадра/сек
    Цветовое пространство : YUV
    Субдискретизация насыщенности : 4:2:0
    Битовая глубина : 8 бит
    Тип развёртки : Прогрессивная
    Метод сжатия : С потерями
    Бит/(Пиксели*Кадры) : 0.285
    Размер потока : 1,36 Гбайт (91%)
    Библиотека кодирования : XviD 65

    Аудио
    Идентификатор : 1
    Формат : AC-3
    Формат/Информация : Audio Coding 3
    Расширение режима : CM (complete main)
    Параметр Endianness формата : Big
    Идентификатор кодека : 2000
    Продолжительность : 1 ч. 33 м.
    Вид битрейта : Постоянный
    Битрейт : 192 Кбит/сек
    Каналы : 2 канала
    Расположение каналов : Front: L R
    Частота : 48,0 КГц
    Битовая глубина : 16 бит
    Метод сжатия : С потерями
    Размер потока : 128 Мбайт (8%)
    Выравнивание : Разделение по промежуткам
    Продолжительность промежутка : 42 мс. (1,00 видеокадр)
    Время предзагрузки промежутка : 500 мс.

    Общее
    Полное имя : E:Royal_Wedding_1951Royal_Wedding_eng.ac3
    Формат : AC-3
    Формат/Информация : Audio Coding 3
    Размер файла : 128 Мбайт
    Продолжительность : 1 ч. 33 м.
    Режим общего битрейта : Постоянный
    Общий поток : 192 Кбит/сек

    Аудио
    Формат : AC-3
    Формат/Информация : Audio Coding 3
    Расширение режима : CM (complete main)
    Параметр Endianness формата : Big
    Продолжительность : 1 ч. 33 м.
    Вид битрейта : Постоянный
    Битрейт : 192 Кбит/сек
    Каналы : 1 канал
    Расположение каналов : Front: C
    Частота : 48,0 КГц
    Битовая глубина : 16 бит
    Метод сжатия : С потерями
    Размер потока : 128 Мбайт (100%)

    Общее
    Полное имя : E:Royal_Wedding_1951Royal_Wedding_rus_DVD_Magic.ac3
    Формат : AC-3
    Формат/Информация : Audio Coding 3
    Размер файла : 128 Мбайт
    Продолжительность : 1 ч. 33 м.
    Режим общего битрейта : Постоянный
    Общий поток : 192 Кбит/сек

    Аудио
    Формат : AC-3
    Формат/Информация : Audio Coding 3
    Расширение режима : CM (complete main)
    Параметр Endianness формата : Big
    Продолжительность : 1 ч. 33 м.
    Вид битрейта : Постоянный
    Битрейт : 192 Кбит/сек
    Каналы : 2 канала
    Расположение каналов : Front: L R
    Частота : 48,0 КГц
    Битовая глубина : 16 бит
    Метод сжатия : С потерями
    Размер потока : 128 Мбайт (100%)

    Общее
    Полное имя : E:Royal_Wedding_1951Royal_Wedding_rus_NTV.ac3
    Формат : AC-3
    Формат/Информация : Audio Coding 3
    Размер файла : 128 Мбайт
    Продолжительность : 1 ч. 33 м.
    Режим общего битрейта : Постоянный
    Общий поток : 192 Кбит/сек

    Аудио
    Формат : AC-3
    Формат/Информация : Audio Coding 3
    Расширение режима : CM (complete main)
    Параметр Endianness формата : Big
    Продолжительность : 1 ч. 33 м.
    Вид битрейта : Постоянный
    Битрейт : 192 Кбит/сек
    Каналы : 2 канала
    Расположение каналов : Front: L R
    Частота : 48,0 КГц
    Битовая глубина : 16 бит
    Метод сжатия : С потерями
    Размер потока : 128 Мбайт (100%)

    Общее
    Полное имя : E:Royal_Wedding_1951Royal_Wedding_rus_Svetla.ac3
    Формат : AC-3
    Формат/Информация : Audio Coding 3
    Размер файла : 128 Мбайт
    Продолжительность : 1 ч. 33 м.
    Режим общего битрейта : Постоянный
    Общий поток : 192 Кбит/сек

    Аудио
    Формат : AC-3
    Формат/Информация : Audio Coding 3
    Расширение режима : CM (complete main)
    Параметр Endianness формата : Big
    Продолжительность : 1 ч. 33 м.
    Вид битрейта : Постоянный
    Битрейт : 192 Кбит/сек
    Каналы : 2 канала
    Расположение каналов : Front: L R
    Частота : 48,0 КГц
    Битовая глубина : 16 бит
    Метод сжатия : С потерями
    Размер потока : 128 Мбайт (100%)

    Размер скачиваемого торрента: 1.99 GB (2142076928 Bytes)

    Королевская свадьба / Royal Wedding / Wedding Bells (1951) DVDRip | P2 скачать через торрент бесплатно
    загрузка...
    Рейтинг →
     (голосов: 1, оценка 3/5, голосовать можно 1 раз )

    Другие торренты по теме:

  • Королевская свадьба / Royal Wedding (Wedding Bells) (1951) DVDRip скачать через торрент бесплатно
  • Королевская свадьба / Royal Wedding / Wedding Bells (1951) DVDRip-AVC | P2 торрент скачать бесплатно


    • Комментарии (0):

      Информация

      Информация

        Посетители, находящиеся в группе Гости, не могут оставлять комментарии в данной новости.

        ↓ Меню



        ↓ Опрос

        А Вы добавили сайт в закладки?
        Да
        Не


        Top 10 за неделю (Фильмы)