.
Авторизация | Регистрация
Хочешь лучшие торренты? Добавь свой email!
Добавить
» » Воскрешенный Адам / Adam Resurrected (2008) BDRip 720p | P2 торрент скачать бесплатно




    Воскрешенный Адам / Adam Resurrected (2008) BDRip 720p | P2 торрент скачать бесплатно

    Опубликовал: Админ | Дата: 27-02-2015, 11:09 | Просмотров: 281

    Детально о кино
    Русское название: Воскрешенный Адам
    Русское название в мировом прокате: Adam Resurrected
    Создали в: 2008
    Категория жанра: драма, военный
    Главный режиссер: Пол Шредер
    Актеры: Джефф Голдблюм, Уиллем Дефо, Дерек Джекоби, Айелет Зурер, Хана Ласло, Йоахим Круль, Евгения Додина, Тудор Рапитеану, Вероника Феррес, Идан Альтерман

    Сюжет фильма:
    В центре истории судьба еврея Адама Штейна, бывшего клоуна, который, очутившись в концлагере, только потому не попал в газовую камеру, что по приказу нацистов развлекал перед смертью тысячи других евреев.

    После войны Адам, помещенный в психиатрическую больницу для жертв холокоста, пытается выжить, противостоя окружающему его безумию…



    Official Site

    Снималось в: Германия, США, Израиль
    Киностудия: July August Productions, 3L Filmproduktion, Adam Productions, Bleiberg Entertainment
    Время просмотра: 01:46:30
    Перевод текста: Профессиональный (двухголосый закадровый)

    Файл
    Кодек для видео: x264
    Качество фильма: BDRip 720p
    Информация о видео: 1280x544 (2.35:1), 23.976 fps, 4365 kbps
    Информация о звуке:
    Russian; AC-3, 3/2 (L,C,R,l,r) LFE ch, 48.0 kHz, 448 kbps, CBR
    English; DTS, 3/2 (L,C,R,l,r) LFE ch, 48.0 kHz, 1509 kbps, CBR
    Субтитры: английские

    SAMPLE

    Релиз подготовил: CiNEFiLE

    MediaInfo
    Общее
    Уникальный идентификатор : 220251316865156993392427416798885839352 (0xA5B2DC532C838E928DBE1D3C446001F8)
    Полное имя : Adam.Resurrected.2008.720p.BluRay.x264-CiNEFiLE.mkv
    Формат : Matroska
    Версия формата : Version 1
    Размер файла : 4,71 Гбайт
    Продолжительность : 1 ч. 46 м.
    Общий поток : 6325 Кбит/сек
    Дата кодирования : UTC 2009-09-19 19:36:39
    Программа кодирования : mkvmerge v2.0.2 (;You;re My Flame;) built on Feb 21 2007 23:40:55
    Библиотека кодирования : libebml v0.7.7 libmatroska v0.8.1

    Видео
    Идентификатор : 1
    Формат : AVC
    Формат/Информация : Advanced Video Codec
    Профиль формата : High@L3.1
    Параметр CABAC формата : Да
    Параметр ReFrames формата : 5 кадров
    Идентификатор кодека : V_MPEG4/ISO/AVC
    Продолжительность : 1 ч. 46 м.
    Битрейт : 4365 Кбит/сек
    Ширина : 1280 пикселей
    Высота : 544 пикселя
    Соотношение сторон : 2,35:1
    Режим частоты кадров : Постоянный
    Частота кадров : 23,976 кадра/сек
    Цветовое пространство : YUV
    Субдискретизация насыщенности : 4:2:0
    Битовая глубина : 8 бит
    Тип развёртки : Прогрессивная
    Бит/(Пиксели*Кадры) : 0.261
    Размер потока : 3,16 Гбайт (67%)
    Библиотека кодирования : x264 core 75 r1251 e553a4c
    Настройки программы : cabac=1 / ref=5 / deblock=1:0:0 / analyse=0x3:0x113 / me=umh / subme=7 / psy=1 / psy_rd=1.0:0.0 / mixed_ref=1 / me_range=16 / chroma_me=1 / trellis=1 / 8x8dct=1 / cqm=0 / deadzone=21,11 / chroma_qp_offset=-2 / threads=6 / nr=0 / decimate=1 / mbaff=0 / bframes=3 / b_pyramid=0 / b_adapt=1 / b_bias=0 / direct=1 / wpredb=1 / keyint=250 / keyint_min=25 / scenecut=40 / rc_lookahead=40 / rc=2pass / mbtree=1 / bitrate=4365 / ratetol=1.0 / qcomp=0.60 / qpmin=10 / qpmax=51 / qpstep=4 / cplxblur=20.0 / qblur=0.5 / ip_ratio=1.40 / aq=1:1.00
    Язык : English
    Default : Да
    Forced : Нет

    Аудио #1
    Идентификатор : 2
    Формат : AC-3
    Формат/Информация : Audio Coding 3
    Расширение режима : CM (complete main)
    Параметр Endianness формата : Big
    Идентификатор кодека : A_AC3
    Продолжительность : 1 ч. 46 м.
    Вид битрейта : Постоянный
    Битрейт : 448 Кбит/сек
    Каналы : 6 каналов
    Расположение каналов : Front: L C R, Side: L R, LFE
    Частота : 48,0 КГц
    Битовая глубина : 16 бит
    Метод сжатия : С потерями
    Размер потока : 341 Мбайт (7%)
    Заголовок : AC3 5.1 448 kbps
    Язык : Russian
    Default : Да
    Forced : Нет

    Аудио #2
    Идентификатор : 3
    Формат : DTS
    Формат/Информация : Digital Theater Systems
    Режим : 16
    Параметр Endianness формата : Big
    Идентификатор кодека : A_DTS
    Продолжительность : 1 ч. 46 м.
    Вид битрейта : Постоянный
    Битрейт : 1509 Кбит/сек
    Каналы : 6 каналов
    Расположение каналов : Front: L C R, Side: L R, LFE
    Частота : 48,0 КГц
    Битовая глубина : 24 бит
    Метод сжатия : С потерями
    Размер потока : 1,12 Гбайт (24%)
    Заголовок : DTS 5.1 1536 kbps
    Язык : English
    Default : Нет
    Forced : Нет

    Текст
    Идентификатор : 4
    Формат : UTF-8
    Идентификатор кодека : S_TEXT/UTF8
    Идентификатор кодека/Информация : UTF-8 Plain Text
    Язык : English
    Default : Да
    Forced : Нет
    Скриншоты для ознакомления

    Размер скачиваемого торрента: 4.71 GB (5052602487 Bytes)

    Воскрешенный Адам / Adam Resurrected (2008) BDRip 720p | P2 торрент скачать бесплатно
    загрузка...
    Рейтинг →
     (голосов: 1, оценка 5/5, голосовать можно 1 раз )

    Другие торренты по теме:



      Комментарии (0):

      Информация

      Информация

        Посетители, находящиеся в группе Гости, не могут оставлять комментарии в данной новости.

        ↓ Меню



        ↓ Опрос

        А Вы добавили сайт в закладки?
        Да
        Не


        Top 10 за месяц (Фильмы)