.
Авторизация | Регистрация
Хочешь лучшие торренты? Добавь свой email!
Добавить
» » Инферно / Out of Inferno (2013) BDRip 720p | L1 скачать через торрент бесплатно




    Инферно / Out of Inferno (2013) BDRip 720p | L1 скачать через торрент бесплатно

    Опубликовал: Админ | Дата: 27-02-2015, 11:09 | Просмотров: 276



    Детально о кино
    Русское название: Инферно
    Русское название в мировом прокате: Out of Inferno
    Создали в: 2013
    Категория жанра: драма
    Главный режиссер: Оксид Пан, Дэнни Пан
    Актеры: Чинг Ван Лау, Луис Ку, Анджелика Ли, Чэнь Сы Чэн, Натали Тонг, Сиу-Фай Чунг, QiaoQiao Jin, Crystal Lee, Marc Ma, ShiuHung Hui

    Сюжет фильма: Команде гонконгских пожарных придется столкнуться не только с небывалой силой пожара, но и с непростой задачей по спасению оказавшихся замкнутыми в огненном котле людьми.



    Снималось в: Китай, Гонконг
    Время просмотра: 01:47:14
    Тип перевода: Любительское (одноголосое) den904

    Файл
    Тип видео: MKV
    Качество фильма: BDRip 720p
    Информация о видео: 6069 kb/s, 1280x720
    Информация о звуке: Russian: AC3, 192 kb/s (2 ch) / Chinese Cantonese: DTS, 755 Kb/s (6 ch) / Chinese Mandarin: AC3, 448 Kb/s (6 ch)





    MI
    Format : Matroska
    Format version : Version 4 / Version 2
    File size : 5.60 GiB
    Duration : 1h 47mn
    Overall bit rate : 7 479 Kbps
    Encoded date : UTC 2014-01-13 23:53:47
    Writing application : mkvmerge v6.1.0 (;Old Devil;) built on Mar 4 2013 09:10:42
    Writing library : libebml v1.3.0 libmatroska v1.4.0

    Video
    ID : 1
    Format : AVC
    Format/Info : Advanced Video Codec
    Format profile : High@L4.1
    Format settings, CABAC : Yes
    Format settings, ReFrames : 9 frames
    Codec ID : V_MPEG4/ISO/AVC
    Duration : 1h 47mn
    Bit rate : 6 069 Kbps
    Width : 1 280 pixels
    Height : 720 pixels
    Display aspect ratio : 16:9
    Frame rate : 24.000 fps
    Color space : YUV
    Chroma subsampling : 4:2:0
    Bit depth : 8 bits
    Scan type : Progressive
    Bits/(Pixel*Frame) : 0.274
    Stream size : 4.45 GiB (79%)
    Writing library : x264 core 129 r2245 704 36 8e61944 tMod MixAQ 8-bit@4:2:0 X86_64
    Encoding settings : cabac=1 / ref=9 / deblock=1:-3:-3 / analyse=0x3:0x133 / me=umh / subme=11 / psy=1 / fade_compensate=0.00 / psy_rd=1.05:0.10 / mixed_ref=1 / me_range=32 / chroma_me=1 / trellis=2 / 8x8dct=1 / cqm=0 / deadzone=21,11 / fast_pskip=0 / chroma_qp_offset=-3 / threads=18 / lookahead_threads=3 / sliced_threads=0 / nr=0 / decimate=0 / interlaced=0 / bluray_compat=0 / constrained_intra=0 / fgo=0 / bframes=8 / b_pyramid=2 / b_adapt=2 / b_bias=0 / direct=3 / weightb=1 / open_gop=0 / weightp=2 / keyint=250 / keyint_min=24 / scenecut=40 / intra_refresh=0 / rc=2pass / mbtree=0 / bitrate=6069 / ratetol=1.0 / qcomp=0.70 / qpmin=0 / qpmax=69 / qpstep=4 / cplxblur=20.0 / qblur=0.5 / ip_ratio=1.40 / pb_ratio=1.30 / aq=3 / aq-strength=0.90 / aq-sensitivity=10.00 / aq-ifactor=1.00 / aq-pfactor=1.00 / aq-bfactor=1.00 / aq2=0
    Language : Chinese
    Default : Yes
    Forced : No
    Matrix coefficients : BT.709-5, BT.1361, IEC 61966-2-4 709, SMPTE RP177

    Audio #1
    ID : 2
    Format : AC-3
    Format/Info : Audio Coding 3
    Mode extension : CM (complete main)
    Format settings, Endianness : Big
    Codec ID : A_AC3
    Duration : 1h 47mn
    Bit rate mode : Constant
    Bit rate : 192 Kbps
    Channel(s) : 2 channels
    Channel positions : Front: L R
    Sampling rate : 48.0 KHz
    Bit depth : 16 bits
    Compression mode : Lossy
    Stream size : 147 MiB (3%)
    Language : Russian
    Default : Yes
    Forced : No

    Audio #2
    ID : 3
    Format : DTS
    Format/Info : Digital Theater Systems
    Codec ID : A_DTS
    Duration : 1h 47mn
    Bit rate mode : Constant
    Bit rate : 755 Kbps
    Channel(s) : 6 channels
    Channel positions : Front: L C R, Side: L R, LFE
    Sampling rate : 48.0 KHz
    Bit depth : 16 bits
    Compression mode : Lossy
    Stream size : 579 MiB (10%)
    Title : Cantonese
    Language : Chinese
    Default : No
    Forced : No

    Audio #3
    ID : 4
    Format : AC-3
    Format/Info : Audio Coding 3
    Mode extension : CM (complete main)
    Format settings, Endianness : Big
    Codec ID : A_AC3
    Duration : 1h 47mn
    Bit rate mode : Constant
    Bit rate : 448 Kbps
    Channel(s) : 6 channels
    Channel positions : Front: L C R, Side: L R, LFE
    Sampling rate : 48.0 KHz
    Bit depth : 16 bits
    Compression mode : Lossy
    Stream size : 344 MiB (6%)
    Title : Mandarin
    Language : Chinese
    Default : No
    Forced : No

    Menu
    00:00:00.000 : en:00:00:00.000
    00:06:25.416 : en:00:06:25.416
    00:14:33.208 : en:00:14:33.208
    00:22:51.291 : en:00:22:51.291
    00:32:30.291 : en:00:32:30.291
    00:43:25.000 : en:00:43:25.000
    00:52:47.583 : en:00:52:47.583
    01:02:24.041 : en:01:02:24.041
    01:11:21.416 : en:01:11:21.416
    01:21:34.541 : en:01:21:34.541
    01:29:21.750 : en:01:29:21.750
    01:38:39.625 : en:01:38:39.625
    Скриншоты для ознакомления

    Размер скачиваемого торрента: 5.60 GB (6014723974 Bytes)

    Инферно / Out of Inferno (2013) BDRip 720p | L1 скачать через торрент бесплатно
    загрузка...
    Рейтинг →
     (голосов: 1, оценка 3/5, голосовать можно 1 раз )

    Другие торренты по теме:



      Комментарии (0):

      Информация

      Информация

        Посетители, находящиеся в группе Гости, не могут оставлять комментарии в данной новости.

        ↓ Меню



        ↓ Опрос

        А Вы добавили сайт в закладки?
        Да
        Не


        Top 10 за месяц (Фильмы)