.
Авторизация | Регистрация
Хочешь лучшие торренты? Добавь свой email!
Добавить
» » Убить Сталина (2013) WEB-DLRip от Generalfilm | КПК торрент скачать бесплатно




    Убить Сталина (2013) WEB-DLRip от Generalfilm | КПК торрент скачать бесплатно

    Опубликовал: Админ | Дата: 27-02-2015, 11:10 | Просмотров: 274



    Детально о кино
    Русское название в мировом прокате: Убить Сталина
    Создали в: 2013
    Категория жанра: Исторический, война, шпионский детектив
    Главный режиссер: Сергей Гинзбург
    Актеры: Александр Домогаров, Михаил Пореченков, Екатерина Вилкова, Павел Трубинер, Андрей Гусев, Василий Мищенко, Игорь Хрипунов, Ярослав Жалнин, Игорь Арташонов, Владимир Юматов, Азамат Нигманов, Адам Булгучев, Дмитрий Гудочкин, Анатолий Дзиваев, Николай Шрайбер, Дмитрий Лавров (III), Алексей Огурцов, Денис Константинов, Евгений Миллер, Максим Лагашкин, Николай Зазуля, Илья Ермолов, Георгий Славский, Александр Никольский (II), Олег Малышев, Руслан Искандаров, Роман Синицын, Артём Федотов, Алла Малкова, Евгений Смирнов-Иваницкий, Валерий Бассэль

    Сюжет фильма:
    Осень 1941-го года. Немецкие полчища докатились до Москвы. Здесь их сдерживают героические усилия советских воинов и рано наступившая морозная зима. Но положение на фронте очень тяжелое, врага едва удается сдерживать. А руководство рейха решает нанести сокрушительный и коварный удар – убить Сталина. Осуществить операцию поручено специальной группе офицеров из команды Абвера Бранденбург-800, которой помогает глубоко внедренный в нашу армию фашистский агент. На пути врага встают умные и смелые сотрудники МГБ СССР…



    Снималось в: Россия
    Киностудия: Star Media
    Время просмотра: 8 х ~00:51:00
    Перевод текста: Не требуется

    Файл
    Тип видео: MP4
    Качество фильма: WEB-DLRip | КПК
    Информация о видео: MPEG-4 AVC (x264), 640x360, ~500 kbps, 25.000 fps
    Информация о звуке: AAC LC, 44.1 KHz, 2 ch, 128 Kbps
    Субтитры: Нет

    Семпл

    Скриншоты для ознакомления

    MI
    General
    Complete name : E:KinoUbit.Stalina.2013.AVC.WEBRip.KPK.GeneralfilmUbit.Stalina.e02.2013.AVC.WEB-DLRip.KPK.Generalfilm.mp4
    Format : MPEG-4
    Format profile : Base Media
    Codec ID : isom
    File size : 231 MiB
    Duration : 51mn 11s
    Overall bit rate mode : Variable
    Overall bit rate : 630 Kbps
    Encoded date : UTC 2014-01-03 13:09:47
    Tagged date : UTC 2014-01-03 13:09:47

    Video
    ID : 1
    Format : AVC
    Format/Info : Advanced Video Codec
    Format profile : Baseline@L4.1
    Format settings, CABAC : No
    Format settings, ReFrames : 6 frames
    Codec ID : avc1
    Codec ID/Info : Advanced Video Coding
    Duration : 51mn 11s
    Bit rate : 500 Kbps
    Maximum bit rate : 2 901 Kbps
    Width : 640 pixels
    Height : 360 pixels
    Display aspect ratio : 16:9
    Frame rate mode : Constant
    Frame rate : 25.000 fps
    Color space : YUV
    Chroma subsampling : 4:2:0
    Bit depth : 8 bits
    Scan type : Progressive
    Bits/(Pixel*Frame) : 0.087
    Stream size : 183 MiB (79%)
    Writing library : x264 core 125 r2200 999b753
    Encoding settings : cabac=0 / ref=6 / deblock=1:-1:-1 / analyse=0x1:0x111 / me=umh / subme=7 / psy=1 / psy_rd=1.00:0.00 / mixed_ref=0 / me_range=16 / chroma_me=1 / trellis=1 / 8x8dct=0 / cqm=0 / deadzone=21,11 / fast_pskip=0 / chroma_qp_offset=-2 / threads=12 / lookahead_threads=2 / sliced_threads=0 / nr=0 / decimate=1 / interlaced=0 / bluray_compat=0 / constrained_intra=0 / bframes=0 / weightp=0 / keyint=250 / keyint_min=25 / scenecut=40 / intra_refresh=0 / rc_lookahead=60 / rc=2pass / mbtree=1 / bitrate=500 / ratetol=1.0 / qcomp=0.60 / qpmin=0 / qpmax=69 / qpstep=4 / cplxblur=20.0 / qblur=0.5 / ip_ratio=1.40 / aq=1:1.00
    Encoded date : UTC 2014-01-03 13:09:47
    Tagged date : UTC 2014-01-03 13:09:51

    Audio
    ID : 2
    Format : AAC
    Format/Info : Advanced Audio Codec
    Format profile : LC
    Codec ID : 40
    Duration : 51mn 11s
    Bit rate mode : Variable
    Bit rate : 128 Kbps
    Maximum bit rate : 150 Kbps
    Channel count : 2 channels
    Channel positions : Front: L R
    Sampling rate : 44.1 KHz
    Compression mode : Lossy
    Stream size : 46.9 MiB (20%)
    Encoded date : UTC 2014-01-03 13:09:51
    Tagged date : UTC 2014-01-03 13:09:5

    Релиз подготовил:
    Залил: toys_watch
    Размер скачиваемого торрента: 1.80 GB (1928231004 Bytes)

    Убить Сталина (2013) WEB-DLRip от Generalfilm | КПК торрент скачать бесплатно
    загрузка...
    Рейтинг →
     (голосов: 1, оценка 5/5, голосовать можно 1 раз )

    Другие торренты по теме:

  • Убить Сталина (2013) SATRip от GeneralFilm
  • Убить Сталина (2013) WEB-DL (1080p) от Nikolspup
  • Убить Сталина (2013) WEB-DL (720p) от ExKinoRay
  • Убить Сталина (2013) WEB-DLRip от РиперАМ скачать через торрент бесплатно
  • Убить Сталина (2013) WEB-DLRip от Generalfilm
  • Убить Сталина (2013) DVDRip от NovaLan скачать через торрент бесплатно


    • Комментарии (0):

      Информация

      Информация

        Посетители, находящиеся в группе Гости, не могут оставлять комментарии в данной новости.

        ↓ Меню



        ↓ Опрос

        А Вы добавили сайт в закладки?
        Да
        Не


        Top 10 за месяц (Фильмы)