.
Авторизация | Регистрация
Хочешь лучшие торренты? Добавь свой email!
Добавить
» » Диана: История любви / Diana (2013) WEB-DLRip от RG BroDim | iTunes скачать через торрент бесплатно




    Диана: История любви / Diana (2013) WEB-DLRip от RG BroDim | iTunes скачать через торрент бесплатно

    Опубликовал: Админ | Дата: 27-02-2015, 11:10 | Просмотров: 243



    Детально о кино
    Русское название: Диана: История любви
    Русское название в мировом прокате: Diana
    Создали в: 2013
    Категория жанра: драма, мелодрама, биография
    Главный режиссер: Оливер Хиршбигель / Oliver Hirschbiegel
    Актеры: Наоми Уоттс, Навин Эндрюс, Дуглас Ходж, Джеральдин Джеймс, Чарльз Эдвардс, Дэниэл Пайрри, Кэс Анвар, Джульет Стивенсон, Джонатан Керриган, Лоуренс Белчер и др.

    Сюжет фильма: Принцесса Диана — самая популярная женщина своего времени, еще при жизни названная принцессой людских сердец. Она покорила сердца миллионов, ей признавались в любви все — от принца Англии до могущественных миллиардеров… Но кого любила она сама?

    Через несколько лет после расставания с принцем Чарльзом леди Диана почти забывает о личной жизни и посвящает себя общественной деятельности. Ее график заполнен до предела, встречи и мероприятия идут нескончаемой чередой, пока, посещая одну из лондонских больниц, она случайно знакомится с 36-летним кардиохирургом. Так начинается роман, ставший по свидетельству многих друзей Дианы любовью всей ее жизни. Официальные аудиенции в Кенсингтонском дворце и тайные свидания в ночных клубах, радость коротких встреч и боль расставаний, желание всегда быть вместе и стремление избежать огласки…



    Снималось в: Ecosse Films, Le Pacte, Scope Pictures, Великобритания, Франция, Швеция, Бельгия
    Время просмотра: 01:52:33
    Перевод текста: Профессиональный (полное дублирование) iTunes
    Субтитры: нет
    Оригинальная аудиодорожка: нет

    Автор рипа: ArtZak

    Файл
    Качество фильма: WEB-DLRip | Сэмпл
    Информация о видео: MPEG4, XviD, 688x384 (16:9), 24.000 fps, 793 Kbps (0.125 bit/pixel)
    Информация о звуке: MP3, 48.0 KHz, 2 ch, 128 Kbps, CBR
    Скриншоты для ознакомления

    MI
    General
    Complete name : Diana.2013.D.WEB-DLRip.700MB.iTunes.avi
    Format : AVI
    Format/Info : Audio Video Interleave
    File size : 749 MiB
    Duration : 1h 52mn
    Overall bit rate : 930 Kbps
    Writing application : VirtualDubMod 1.5.10.2 (build 2540/release)
    Writing library : VirtualDubMod build 2540/release

    Video
    ID : 0
    Format : MPEG-4 Visual
    Format profile : Advanced Simple@L5
    Format settings, BVOP : 1
    Format settings, QPel : No
    Format settings, GMC : No warppoints
    Format settings, Matrix : Default (H.263)
    Codec ID : XVID
    Codec ID/Hint : XviD
    Duration : 1h 52mn
    Bit rate : 793 Kbps
    Width : 688 pixels
    Height : 384 pixels
    Display aspect ratio : 16:9
    Frame rate : 24.000 fps
    Color space : YUV
    Chroma subsampling : 4:2:0
    Bit depth : 8 bits
    Scan type : Progressive
    Compression mode : Lossy
    Bits/(Pixel*Frame) : 0.125
    Stream size : 638 MiB (85%)
    Writing library : XviD 1.2.1 (UTC 2008-12-04)

    Audio
    ID : 1
    Format : MPEG Audio
    Format version : Version 1
    Format profile : Layer 3
    Codec ID : 55
    Codec ID/Hint : MP3
    Duration : 1h 52mn
    Bit rate mode : Constant
    Bit rate : 128 Kbps
    Channel count : 2 channels
    Sampling rate : 48.0 KHz
    Compression mode : Lossy
    Stream size : 103 MiB (14%)
    Alignment : Aligned on interleaves
    Interleave, duration : 42 ms (1.00 video frame)
    Interleave, preload duration : 504 ms
    Writing library : LAME3.98r
    Encoding settings : -m s -V 4 -q 2 -lowpass 17 -b 128


    Релиз:

    Размер скачиваемого торрента: 748.71 MB (785084416 Bytes)

    Диана: История любви / Diana (2013) WEB-DLRip от RG BroDim | iTunes скачать через торрент бесплатно
    загрузка...
    Рейтинг →
     (голосов: 1, оценка 4/5, голосовать можно 1 раз )

    Другие торренты по теме:

  • Диана: История любви / Diana (2013) DVDScr | L1 скачать через торрент бесплатно
  • Диана: История любви / Diana (2013) WEBRip | D скачать через торрент бесплатно
  • Диана: История любви / Diana (2013) WEB-DL 720p | iTunes скачать через торрент бесплатно
  • Диана: История любви / Diana (2013) WEB-DLRip | iTunes
  • Диана: История любви / Diana (2013) Blu-Ray 1080p | Лицензия
  • Диана: История любви / Diana (2013) BDRemux 1080p от ExKinoRay | Лицензия
  • Диана: История любви / Diana (2013) HDRip | Лицензия
  • Диана: История любви / Diana (2013) BDRip 720p | iTunes


    • Комментарии (0):

      Информация

      Информация

        Посетители, находящиеся в группе Гости, не могут оставлять комментарии в данной новости.

        ↓ Меню



        ↓ Опрос

        А Вы добавили сайт в закладки?
        Да
        Не


        Top 10 за месяц (Фильмы)