.
Авторизация | Регистрация
» » СуперПерцы / Четкие пацаны / SuperBad (2007) BDRip-AVC от New-Team | Unrated | D, P2, L1 скачать через торрент бесплатно




    СуперПерцы / Четкие пацаны / SuperBad (2007) BDRip-AVC от New-Team | Unrated | D, P2, L1 скачать через торрент бесплатно

    Опубликовал: Админ | Дата: 27-02-2015, 11:10 | Просмотров: 336

    СуперПерцы / Четкие пацаны / SuperBad Unrated



    Снималось в: США
    Категория жанра: комедия
    Создали в: 2007
    Время просмотра: 01:58:40
    Перевод текста 1: Профессиональный (дублированный)
    Перевод текста 2: Профессиональный (двухголосый закадровый)
    Перевод текста 3: Одноголосый закадровый (Алексей Doctor_Joker)
    Субтитры подготовлены: русские (2 вида), английские
    Оригинальная аудиодорожка: английский

    Главный режиссер: Грег Моттола / Greg Mottola

    Актеры: Джона Хилл, Майкл Сера, Кристофер Минц-Плассе, Билл Хадер, Сет Роген, Марта МакАйсак, Эмма Стоун, Авива, Джо Ло Труглио, Кевин Корригэн...

    Сюжет: Три колоритных дебила заканчивают школу, но не хотят пойти в колледж девственниками, ибо не комильфо. А тут как нельзя кстати и девушки их мечты подкидывают идейки насчет будущей вечеринки. Пацаны соглашаются и на пути к осуществлению заветной мечты проходят сквозь множество убойных ситуаций и перепИтий. Как это было – смотрите в кино.


    Доп. информация: Unrated версия не выходила в дубляже. В расширенные моменты вставлен двухголосый перевод.
    За одноголосый перевод и вторые русские субтитры спасибо Алексей Doctor_Joker Матвеев и Bloodymetall
    Без любой одной дорожки, с битрейтом 448, рип умещается на болванку DVD5.

    Качество фильма видео: BDRip-AVC (исх. Blu-ray 2-Disc Special Edition)
    Тип видео видео: MKV
    Информация о видео: x.264, 1152x624, 3989 Kbps, 23.976 fps
    Информация о звуке 1: AC3, 48000 Hz, 384 Kbps, 5.1 ch - Дубляж (со вставками двухголоски на расширенные места)
    Информация о звуке 2: AC3, 48000 Hz, 448 Kbps, 5.1 ch - Двухголосый
    Информация о звуке 3: AC3, 48000 Hz, 448 Kbps, 5.1 ch - Одноголосый ( Алексей Doctor_Joker)
    Информация о звуке 4: AC3, 48000 Hz, 448 Kbps, 5.1 ch - Оригинал (английский)
    Тип видео субтитров: softsub (SRT), SSA - русские (2 вида), английские




    Скриншоты для ознакомления

    align=center


    /align

    Резервные скриншоты

    align=center


    /align

    Отчёт MediaInfo

    codeFormat : Matroska
    Format version : Version 2
    File size : 4.74 GiB
    Duration : 1h 58mn
    Overall bit rate : 5 720 Kbps
    Movie name : СуперПерцы / Четкие пацаны / SuperBad Unrated BDRip-AVC
    Encoded date : UTC 2014-01-15 13:50:43
    Writing application : mkvmerge v6.7.0 (;Back to the Ground;) 32bit built on Jan 8 2014 15:03:17
    Writing library : libebml v1.3.0 libmatroska v1.4.1
    Attachment : Yes / Yes

    Video
    ID : 1
    Format : AVC
    Format/Info : Advanced Video Codec
    Format profile : High@L4.1
    Format settings, CABAC : Yes
    Format settings, ReFrames : 10 frames
    Codec ID : V_MPEG4/ISO/AVC
    Duration : 1h 58mn
    Bit rate : 3 989 Kbps
    Width : 1 152 pixels
    Height : 624 pixels
    Display aspect ratio : 1.85:1
    Frame rate mode : Constant
    Frame rate : 23.976 fps
    Color space : YUV
    Chroma subsampling : 4:2:0
    Bit depth : 8 bits
    Scan type : Progressive
    Bits/(Pixel*Frame) : 0.231
    Stream size : 3.21 GiB (68%)
    Writing library : x264 core 140 r2377 1ca7bb9
    Encoding settings : cabac=1 / ref=10 / deblock=1:-2:-2 / analyse=0x3:0x133 / me=umh / subme=10 / psy=1 / psy_rd=1.00:0.05 / mixed_ref=1 / me_range=32 / chroma_me=1 / trellis=2 / 8x8dct=1 / cqm=0 / deadzone=21,11 / fast_pskip=0 / chroma_qp_offset=-3 / threads=6 / lookahead_threads=1 / sliced_threads=0 / nr=0 / decimate=1 / interlaced=0 / bluray_compat=0 / constrained_intra=0 / bframes=8 / b_pyramid=2 / b_adapt=2 / b_bias=0 / direct=3 / weightb=1 / open_gop=0 / weightp=2 / keyint=240 / keyint_min=23 / scenecut=40 / intra_refresh=0 / rc_lookahead=60 / rc=2pass / mbtree=0 / bitrate=3989 / ratetol=1.0 / qcomp=0.60 / qpmin=0 / qpmax=69 / qpstep=4 / cplxblur=20.0 / qblur=0.5 / vbv_maxrate=15000 / vbv_bufsize=20000 / nal_hrd=none / filler=0 / ip_ratio=1.30 / pb_ratio=1.30 / aq=2:1.00 / zones=166760,170711,b=0.3
    Language : English
    Default : Yes
    Forced : No

    Audio #1
    ID : 2
    Format : AC-3
    Format/Info : Audio Coding 3
    Mode extension : CM (complete main)
    Format settings, Endianness : Big
    Codec ID : A_AC3
    Duration : 1h 58mn
    Bit rate mode : Constant
    Bit rate : 384 Kbps
    Channel(s) : 6 channels
    Channel positions : Front: L C R, Side: L R, LFE
    Sampling rate : 48.0 KHz
    Bit depth : 16 bits
    Compression mode : Lossy
    Stream size : 326 MiB (7%)
    Title : DUB DVO
    Language : Russian
    Default : Yes
    Forced : No

    Audio #2
    ID : 3
    Format : AC-3
    Format/Info : Audio Coding 3
    Mode extension : CM (complete main)
    Format settings, Endianness : Big
    Codec ID : A_AC3
    Duration : 1h 58mn
    Bit rate mode : Constant
    Bit rate : 448 Kbps
    Channel(s) : 6 channels
    Channel positions : Front: L C R, Side: L R, LFE
    Sampling rate : 48.0 KHz
    Bit depth : 16 bits
    Compression mode : Lossy
    Stream size : 380 MiB (8%)
    Title : DVO
    Language : Russian
    Default : No
    Forced : No

    Audio #3
    ID : 4
    Format : AC-3
    Format/Info : Audio Coding 3
    Mode extension : CM (complete main)
    Format settings, Endianness : Big
    Codec ID : A_AC3
    Duration : 1h 58mn
    Bit rate mode : Constant
    Bit rate : 448 Kbps
    Channel(s) : 6 channels
    Channel positions : Front: L C R, Side: L R, LFE
    Sampling rate : 48.0 KHz
    Bit depth : 16 bits
    Compression mode : Lossy
    Stream size : 380 MiB (8%)
    Title : VO Doctor_Joker
    Language : Russian
    Default : No
    Forced : No

    Audio #4
    ID : 5
    Format : AC-3
    Format/Info : Audio Coding 3
    Mode extension : CM (complete main)
    Format settings, Endianness : Big
    Codec ID : A_AC3
    Duration : 1h 58mn
    Bit rate mode : Constant
    Bit rate : 448 Kbps
    Channel(s) : 6 channels
    Channel positions : Front: L C R, Side: L R, LFE
    Sampling rate : 48.0 KHz
    Bit depth : 16 bits
    Compression mode : Lossy
    Stream size : 380 MiB (8%)
    Title : Original
    Language : English
    Default : No
    Forced : No

    Text #1
    ID : 6
    Format : UTF-8
    Codec ID : S_TEXT/UTF8
    Codec ID/Info : UTF-8 Plain Text
    Title : Voronin
    Language : Russian
    Default : No
    Forced : No

    Text #2
    ID : 7
    Format : UTF-8
    Codec ID : S_TEXT/UTF8
    Codec ID/Info : UTF-8 Plain Text
    Title : Doctor_Joker
    Language : Russian
    Default : No
    Forced : No

    Text #3
    ID : 8
    Format : SSA
    Codec ID : S_TEXT/SSA
    Codec ID/Info : Sub Station Alpha
    Compression mode : Lossless
    Language : English
    Default : No
    Forced : No/code

    Размер скачиваемого торрента: 4.74 GB (5090880407 Bytes)

    СуперПерцы / Четкие пацаны / SuperBad (2007) BDRip-AVC от New-Team | Unrated | D, P2, L1 скачать через торрент бесплатно
    загрузка...
    Рейтинг →
     (голосов: 1, оценка 4/5, голосовать можно 1 раз )

    Другие торренты по теме:



      Комментарии (0):

      Информация

      Информация

        Посетители, находящиеся в группе Гости, не могут оставлять комментарии в данной новости.

        ↓ Меню



        ↓ Опрос

        А Вы добавили сайт в закладки?
        Да
        Не


        Top 10 за неделю (Фильмы)