.
Авторизация | Регистрация
Хочешь лучшие торренты? Добавь свой email!
Добавить
» » Обитель лжи / House of Lies (2014) HDTV 1080i | Novamedia торрент скачать бесплатно




    Обитель лжи / House of Lies (2014) HDTV 1080i | Novamedia торрент скачать бесплатно

    Опубликовал: Админ | Дата: 27-02-2015, 11:10 | Просмотров: 460

    Обитель лжи / House of Lies

    Русское название: Обитель лжи
    Русское название в мировом прокате: House of Lies
    Создали в: 2014
    Категория жанра: Драма, комедия


    Главный режиссер: Стивен Хопкинс, Адам Бернштейн, Мигель Артета

    Актеры: Дон Чидл, Кристен Белл, Бен Шварц, Джошуа Лосон, Доун Оливери, Донис Леонард мл., Глинн Тёрмен, Ниа Лонг, Бесс Армстронг, Гриффин Данн


    Сюжет фильма:
    House of Lies - сериал основан на книге с длинным названием House of Lies: How Management Consultants Steal Your Watch and Then Tell You the Time. В центре сюжета успешный бизнес-консультант Марти Кан (Дон Чидл), который не брезгует никакими средствами для достижения цели. Разведен, живет с отцом-мозгоправом, воспитывает сына-трансвестита. Его команда: Джинни (Кристен Белл) - бизнес-психолог по образованию, рубит правду-матку глядя собеседнику в глаза; Даг (Джош Лоусон) - слегка трусоватый, вечно что-то жующий выпускник Гарварда; Клайд (Бен Шварц) - в любом деле готов поддержать своего наставника и придти на выручку с дельным советом. Вместе они имеют этот мир!





    Снималось в: США, Refugee Productions
    Время просмотра: 00:25:32
    Перевод текста: Профессиональный многоголосый (Novamedia)


    Качество фильма: HDTV 1080i
    Информация о видео: MPEG-4 AVC, 6802 Кбит/с, 1920x1080
    Информация о звуке: AC3, 6 ch, 384 Кбит/с


    Скриншоты для ознакомления




    Перевод
    Роли озвучивали: Андрей Бархударов, Денис Беспалый, Александр Дасевич, Николай Быстров, Ольга Зубкова, Елена Шульман
    Режиссер озвучания: Александр Дасевич
    Перевод Светланы Пилипенко
    Сериал озвучен студией Novamedia по заказу компании Amedia TV в 2014 году.
    MediaInfo
    Общее
    Идентификатор : 1 (0x1)
    Полное имя : D:House.of.Lies.S03House.of.Lies.S03E01.2014.P.HDTV.1080i.ts
    Формат : MPEG-TS
    Размер файла : 1,35 Гбайт
    Продолжительность : 25 м.
    Режим общего битрейта : Переменный
    Общий поток : 7563 Кбит/сек

    Видео
    Идентификатор : 69 (0x45)
    Идентификатор меню : 1 (0x1)
    Формат : AVC
    Формат/Информация : Advanced Video Codec
    Профиль формата : High@L4.0
    Параметр CABAC формата : Да
    Параметр ReFrames формата : 4 кадра
    Идентификатор кодека : 27
    Продолжительность : 25 м.
    Битрейт : 6802 Кбит/сек
    Ширина : 1920 пикселей
    Высота : 1080 пикселей
    Соотношение сторон : 16:9
    Частота кадров : 25,000 кадров/сек
    Стандарт вещания : Component
    Цветовое пространство : YUV
    Субдискретизация насыщенности : 4:2:0
    Битовая глубина : 8 бит
    Тип развёртки : MBAFF
    Бит/(Пиксели*Кадры) : 0.131
    Размер потока : 1,21 Гбайт (90%)
    Основные цвета : BT.709
    Характеристики трансфера : BT.709
    Коэффициенты матрицы : BT.709

    Аудио
    Идентификатор : 68 (0x44)
    Идентификатор меню : 1 (0x1)
    Формат : AC-3
    Формат/Информация : Audio Coding 3
    Расширение режима : CM (complete main)
    Параметр Endianness формата : Big
    Идентификатор кодека : 129
    Продолжительность : 25 м.
    Вид битрейта : Постоянный
    Битрейт : 384 Кбит/сек
    Каналы : 6 каналов
    Расположение каналов : Front: L C R, Side: L R, LFE
    Частота : 48,0 КГц
    Битовая глубина : 16 бит
    Метод сжатия : С потерями
    Размер потока : 70,1 Мбайт (5%)
    Язык : Russian

    Размер скачиваемого торрента: 1.35 GB (1448588504 Bytes)

    Обитель лжи / House of Lies (2014) HDTV 1080i | Novamedia торрент скачать бесплатно
    загрузка...
    Рейтинг →
     (голосов: 1, оценка 3/5, голосовать можно 1 раз )

    Другие торренты по теме:

  • Обитель лжи / House of Lies (2013) HDTV 720p | NewStudio
  • Обитель лжи / House of Lies (2013) HDTVRip | NewStudio
  • Обитель лжи / House of Lies (2012-2013) HDTVRip | NewStudio
  • Обитель Лжи / House of Lies (2014) HDTVRip | Novamedia скачать через торрент бесплатно
  • Обитель Лжи / House of Lies (2015) HDTVRip от qqss44 | Novamedia скачать через торрент бесплатно
  • Обитель Лжи / House of Lies (2015) HDTVRip 720p от qqss44 | Novamedia
  • Обитель лжи / House of Lies (2016) HDTV 720p | Gears Media
  • Обитель лжи / House of lies (2016) HDTV 720р | Sunshine Studio


    • Комментарии (0):

      Информация

      Информация

        Посетители, находящиеся в группе Гости, не могут оставлять комментарии в данной новости.

        ↓ Меню



        ↓ Опрос

        А Вы добавили сайт в закладки?
        Да
        Не


        Top 10 за месяц (Фильмы)