.
Авторизация | Регистрация
Хочешь лучшие торренты? Добавь свой email!
Добавить
» » Парки и зоны отдыха / Parks and Recreation (2014) WEB-DL 720p | L2 торрент скачать бесплатно




    Парки и зоны отдыха / Parks and Recreation (2014) WEB-DL 720p | L2 торрент скачать бесплатно

    Опубликовал: Админ | Дата: 27-02-2015, 11:10 | Просмотров: 302

    Парки и Зоны Отдыха / Parks and Recreation

    Создали в: 2013
    Снималось в: США
    Категория жанра: Комедия
    Время просмотра: 20 минут

    Перевод текста: Любительский (двухголосый закадровый) To4ka
    Главный режиссёр: Грег Дэниелс

    Актеры: Эми Полер, Рашида Джонс, Азиз Ансари, Обри Плаза, Пол Шнайдер, Ник Офферман, Крис Прэтт, Йен Робертс, Лаудон Уэйнрайт III, Джим О;Хейр и др.

    Сюжет:
    Проект продюсеров и сценаристов The Office. Лесли Ноуп - блондинка-чиновница, совершенно безумная и заставляющая зрителей пережить кучу эмоций, заботится о городе и о его благоустройстве. Лесли попадает в миллион разных дурацких ситуаций, над ней все смеются, но она все преодолеет и станет победителем!


    Сэмпл: http://multi-up.com/938006

    Качество фильма: WEB-DL 720p
    Контейнер: MKV

    Информация о видео: AVC, 1280x720 (1.78:1), 23.976 fps, 4018 kbps avg, 0.182 bit/pixel
    Информация о звуке: AC3, 48 kHz, 6 ch, ~384 kbps avg |To4ka|
    Информация о звуке 2: AC3, 48 kHz, 6 ch, ~384 kbps avg
    Субтитры: отсутствуют
    MediaInfo

    Общее
    Уникальный идентификатор : 208915792250284875818749320789689556419 (0x9D2BB7CFD517B730A8151E33BAAADDC3)
    Полное имя : E:СериалыПарки и зоны отдыхаParks.and.Recreation.s06.WEB-DL.720pParks.and.Recreation.s06e03.WEB-DL.720p.Rus.Eng.mkv
    Формат : Matroska
    Версия формата : Version 1
    Размер файла : 774 Мбайт
    Продолжительность : 21 м.
    Общий поток : 5028 Кбит/сек
    Дата кодирования : UTC 2013-12-13 17:18:32
    Программа кодирования : mkvmerge v2.0.0 (;After The Rain Has Fallen;) built on Jan 13 2007 19:58:56
    Библиотека кодирования : libebml v0.7.7 libmatroska v0.8.0

    Видео
    Идентификатор : 1
    Формат : AVC
    Формат/Информация : Advanced Video Codec
    Профиль формата : High@L3.1
    Параметр CABAC формата : Нет
    Параметр ReFrames формата : 2 кадра
    Идентификатор кодека : V_MPEG4/ISO/AVC
    Продолжительность : 21 м.
    Битрейт : 4160 Кбит/сек
    Ширина : 1280 пикселей
    Высота : 720 пикселей
    Соотношение сторон : 16:9
    Режим частоты кадров : Постоянный
    Частота кадров : 23,976 кадра/сек
    Цветовое пространство : YUV
    Субдискретизация насыщенности : 4:2:0
    Битовая глубина : 8 бит
    Тип развёртки : Прогрессивная
    Бит/(Пиксели*Кадры) : 0.188
    Размер потока : 640 Мбайт (83%)
    Язык : English
    Default : Да
    Forced : Нет
    Основные цвета : BT.709
    Характеристики трансфера : BT.709
    Коэффициенты матрицы : BT.709

    Аудио #1
    Идентификатор : 2
    Формат : AC-3
    Формат/Информация : Audio Coding 3
    Расширение режима : CM (complete main)
    Параметр Endianness формата : Big
    Идентификатор кодека : A_AC3
    Продолжительность : 21 м.
    Вид битрейта : Постоянный
    Битрейт : 384 Кбит/сек
    Каналы : 6 каналов
    Расположение каналов : Front: L C R, Side: L R, LFE
    Частота : 48,0 КГц
    Битовая глубина : 16 бит
    Метод сжатия : С потерями
    Размер потока : 59,1 Мбайт (8%)
    Заголовок : To4ka.TV
    Язык : Russian
    Default : Да
    Forced : Нет

    Аудио #2
    Идентификатор : 3
    Формат : AC-3
    Формат/Информация : Audio Coding 3
    Расширение режима : CM (complete main)
    Параметр Endianness формата : Big
    Идентификатор кодека : A_AC3
    Продолжительность : 21 м.
    Вид битрейта : Постоянный
    Битрейт : 384 Кбит/сек
    Каналы : 6 каналов
    Расположение каналов : Front: L C R, Side: L R, LFE
    Частота : 48,0 КГц
    Битовая глубина : 16 бит
    Метод сжатия : С потерями
    Размер потока : 59,1 Мбайт (8%)
    Язык : English
    Default : Нет
    Forced : Нет

    Скриншоты для ознакомления


    Gifs

    Внимание! Раздача ведётся путём добавления новых серий.

    Внимание! Раздача ведётся путём добавления новых серий; при каждом добавлении создётся новый торрент. Чтобы начать докачку новой серии, пользователям необходимо сделать следующее:

    Остановить скачивание.
    Удалить старый торрент у себя из клиента (старые серии удалять не надо).
    Скачать новый торрент и запустить его у себя в клиенте вместо старого, при этом указать клиенту путь в старую папку куда и должно происходить скачивание новых серий.
    size=11Ваш клиент при этом должен произвести хеширование (проверку) старой папки (если не производит сам - помогите ему сделать это), и будет докачивать только те серии которых у вас ещё нет. Старые серии при этом не удаляются, а продолжают раздаваться!
    Eсли вы уже удалили старые серии, то предотвратить повторную закачку старых серий можно, отжав галочку в соответсвующих местах при запуске нового торрента. По возможности, желательно не удалять старые серии как можно дольше чтобы релизёр не столько продолжал раздавать старые серии, а смог сконцентрироваться на новых./size

    Размер скачиваемого торрента: 4.41 GB (4737789931 Bytes)

    Парки и зоны отдыха / Parks and Recreation (2014) WEB-DL 720p | L2 торрент скачать бесплатно
    загрузка...
    Рейтинг →
     (голосов: 1, оценка 4/5, голосовать можно 1 раз )

    Другие торренты по теме:

  • Парки и зоны отдыха / Parks and Recreation (2012) WEB-DLRip | L2
  • Парки и зоны отдыха / Parks and Recreation (2014) WEB-DLRip | L2


    • Комментарии (0):

      Информация

      Информация

        Посетители, находящиеся в группе Гости, не могут оставлять комментарии в данной новости.

        ↓ Меню



        ↓ Опрос

        А Вы добавили сайт в закладки?
        Да
        Не


        Top 10 за месяц (Фильмы)