.
Авторизация | Регистрация
» » Спираль / Helix (2014) WEB-DLRip-AVC 1080p l AlexFilm торрент скачать бесплатно




    Спираль / Helix (2014) WEB-DLRip-AVC 1080p l AlexFilm торрент скачать бесплатно

    Опубликовал: Админ | Дата: 27-02-2015, 11:10 | Просмотров: 288






    Спираль / Helix






    Создали в: 2014
    Снималось в: США,Lynda Obst Productions, Muse Entertainment Enterprises, Sony Pictures Television
    Категория жанра: фантастика, триллер
    Время просмотра: 00:44:13
    Сезон: 1
    Серия: 1-3
    Количество серий в сезон любимого сериалае: 13
    Перевод текста: Константин Кривоногов
    Озвучка:Профессиональная многоголосая закадровая(AlexFilm),(Евгения Тихонова,Михаил Суслов,Владимир Курдов,Владислав Данилов)
    Субтитры: РУССКИЕ




    Главный режиссер: Дуан Кларк / Duane Clark, Дэвид Слэйд / David Slade, Брэд Тернер / Brad Turner


    Актеры: Нил Напье (Dr. Peter Farragut), Джери Райан (Constance Sutton), Хироюки Санада (Dr. Hiroshi Hitaki), Билл Кэмпбелл (Dr. Alan Farragut), Meegwun Fairbrother (Daniel Aerov), Марк Ганиме (Major Sergio Balleseros), Джордан Хэйес (Dr. Sarah Jordan), Катрин Лемье (Dr. Doreen Boyle), Бенуа Прист (Security Guy), Кира Загорский (Dr. Julia Walker)



    Сериал расскажет о группе учёных из Центра по Борьбе с Заболеваниями, направленных на высокотехнологичную исследовательскую базу в Арктике для расследования возможной вспышки заболевания и вынужденных вести борьбу за спасение человечества.


    Качество фильма : WEB-DLRip-AVC 1080p
    Тип видео: MPEG-4
    Информация о видео кодек: H264
    Информация о видео: 5512Кбит/сек,1920х1080(16.9),в 23.970кадр/сек,AVC(Baseline@L4.0)(1Ref Frames)
    Информация о звуке кодек: AAC
    Информация о звуке Russian Dolby Digital 5.1:401Кбит/сек,44.1КГц,6каналов,AAC,(Version4)(LC)


    Доп. информация:

    Звуковая дорожка сделана путем наложения чистого голоса озвучивателей на центральный канал оригинальной дорожки. Качество идентично звуковой дорожке.



    Список эпизодов сезон любимого сериалаа

    01. Пилот / Pilot
    02. Переносчик / Vector
    03. 274 / 274




    MediaInfo

    General
    Полное имя : D:Helix_2014_S01_RUSAlex_Film_TV_DD5.1_x264_Nikolai.Baranov_WEB-DLRip-AVC_(1080p)Helix_2014_S01E01_RUSAlex_Film_TV_DD5.1_x264_Nikolai.Baranov_WEB-DLRip-AVC_(1080p).mp4
    Формат : MPEG-4
    Профиль формата : Base Media
    Идентификатор кодека : isom
    Размер файла : 1.72 GiB
    Продолжительность : 41mn 37s
    Режим общего битрейта : Variable
    Общий поток : 5 917 Kbps
    Название фильма : РЎРїРёСЂР°РСЊ - 1С…1 - РџРёРРѕС‚
    Дата кодирования : UTC 2014-01-15 06:44:57
    Дата пометки : UTC 2014-01-15 06:44:57
    Программа кодирования : Lavf51.12.1

    Video
    Идентификатор : 1
    Формат : AVC
    Формат/Информация : Advanced Video Codec
    Профиль формата : Baseline@L4.0
    Параметр CABAC формата : No
    Параметр ReFrames формата : 1 frame
    Параметр GOP формата : M=1, N=12
    Идентификатор кодека : avc1
    Идентификатор кодека/Информация : Advanced Video Coding
    Продолжительность : 41mn 36s
    Битрейт : 5 512 Kbps
    Ширина : 1 920 pixels
    Высота : 1 080 pixels
    Соотношение сторон : 16:9
    Режим частоты кадров : Constant
    Частота кадров : 23.976 fps
    Цветовое пространство : YUV
    Субдискретизация насыщенности : 4:2:0
    Битовая глубина : 8 bits
    Тип развёртки : Progressive
    Бит/(Пиксели*Кадры) : 0.111
    Размер потока : 1.60 GiB (93%)
    Язык : English
    Дата кодирования : UTC 2014-01-15 06:44:57
    Дата пометки : UTC 2014-01-15 06:44:57

    Audio
    Идентификатор : 2
    Формат : AAC
    Формат/Информация : Advanced Audio Codec
    Профиль формата : LC
    Идентификатор кодека : 40
    Продолжительность : 41mn 37s
    Вид битрейта : Variable
    Битрейт : 401 Kbps
    Каналы : 6 channels
    Расположение каналов : Front: L C R, Side: L R, LFE
    Частота : 44.1 KHz
    Метод сжатия : Lossy
    Размер потока : 119 MiB (7%)
    Дата кодирования : UTC 2014-01-15 06:44:57
    Дата пометки : UTC 2014-01-15 06:44:57



    Скриншоты для ознакомления










    Внимание! Раздача пополняется по мере выхода новых серий!


    Внимание! Раздача ведётся путём добавления новых серий!


    Раздача ведётся путём добавления новых серий; при каждом добавлении создётся новый торрент.
    Чтобы начать докачку новой серии, пользователям необходимо сделать следующее:
    1. остановить скачивание,
    2. удалить старый торрент у себя из клиента (старые серии удалять не надо),
    3. скачать новый торрент и запустить его у себя в клиенте вместо старого, при этом указать клиенту путь в старую папку, куда и должно происходить скачивание новых серий.

    Ваш клиент при этом должен произвести хеширование (проверку) старой папки (если не производит сам - помогите ему сделать это), и будет докачивать только те серии которых у вас ещё нет. Старые серии при этом не удаляются, а продолжают раздаваться!

    Eсли вы уже удалили старые серии, то предотвратить повторную закачку старых серий можно, отжав галочку в соответсвующих местах при запуске нового торрента. По возможности, желательно не удалять старые серии как можно дольше, чтобы релизёр не столько продолжал раздавать старые серии, а смог сконцентрироваться на новых.

    Совет для тех, кто не хочет ждать перехеширования:
    Создайте ещё одну папку рядом с папкой сериала (рядом, а не в ней!!!). Каждую новую серию после удачной загрузки копируйте в новую папку так чтобы ваша основная папка всегда была пуста. Когда ваш новый торрент предложит вам закачать все файлы, выберете только последнюю. Для сидирования же укажите адрес новой папки.

    Как закачать отдельный файл из торрента или докачать ранее пропущенные файлы торрента!

    Как закачать отдельный файл

    1. Открыть торрент
    2. Снять галки с тех файлов торрента, которые мы не хотим закачивать. Оставляем только на нужных нам файлах (файле).
    3. Нажать О.К.

    В клиенте utorrent

    Инструкция

    1) Открыть торрент


    2) Снять галки с тех файлов торрента, которые мы не хотим закачивать:

    * либо вручную, снимая с каждого файла галку( скрин №1)
    * либо, нажав кнопку Снять метки (Select None), сняв сразу со всех файлов(скрин №2)
    №1

    №2

    Оставляем только на нужных нам файлах (файле).

    3)Нажать О.К







    Релиз подготовил: Nikolai.Baranov









    Залил: NIKOLAI.BARANOV
    Размер скачиваемого торрента: 5.05 GB (5425870593 Bytes)

    Спираль / Helix (2014) WEB-DLRip-AVC 1080p l AlexFilm торрент скачать бесплатно
    загрузка...
    Рейтинг →
     (голосов: 1, оценка 4/5, голосовать можно 1 раз )

    Другие торренты по теме:

  • Граница пустоты: Сад грешников (фильм пятый) - Спираль парадокса / Mujun Rasen (2008) HDRip от Scarabey | Р торрент скачать бесплатно


    • Комментарии (0):

      Информация

      Информация

        Посетители, находящиеся в группе Гости, не могут оставлять комментарии в данной новости.

        ↓ Меню



        ↓ Опрос

        А Вы добавили сайт в закладки?
        Да
        Не


        Top 10 за неделю (Фильмы)