.
Авторизация | Регистрация
Хочешь лучшие торренты? Добавь свой email!
Добавить
» » Гран Торино / Gran Torino (2008) DVD-9 скачать через торрент бесплатно




    Гран Торино / Gran Torino (2008) DVD-9 скачать через торрент бесплатно

    Опубликовал: Админ | Дата: 27-02-2015, 11:10 | Просмотров: 337



    Детально о кино
    Русское название: Гран Торино
    Русское название в мировом прокате: Gran Torino
    Создали в: 2008
    Категория жанра: Драма, криминал
    Главный режиссер: Клинт Иствуд
    Актеры: Клинт Иствуд, Би Ванг, Кристофер Карли, Эни Хи, Брайан Хейли, Джеральдин Хьюз, Дрима Уокер, Брайан Хау, Джон Кэрролл Линч, Уильям Хилл, Брук Чиа Тхао, Чее Тхао, Чоуа Ку, Скотт Иствуд, Хиа Соуа Чанг, Сонни Ву, Доа Моа, Грег Тразаскома, Джон Джонс, Дэвис Глоф

    Сюжет фильма: Вышедший на пенсию автомеханик Уолт Ковальски проводит дни, чиня что-то по дому, попивая пиво и раз в месяц заходя к парикмахеру. И хотя последним желанием его недавно почившей жены было совершение им исповеди, Уолту — ожесточившемуся ветерану Корейской войны, всегда держащему свою винтовку наготове, — признаваться в общем-то не в чем. Да и нет того, кому он доверял бы в той полной мере, в какой доверяет своей собаке Дейзи. Все те люди, коих он некогда называл своими соседями, либо переехали, либо ушли в мир иной, а на смену им пришли иммигранты-хмоны, которых он откровенно презирает. Противясь буквально всему, во что упирается его взгляд, — покосившиеся карнизы, заросшие лужайки домов и лица иностранцев повсюду; бесцельно шатающиеся шайки подростков, состоящие из хмонов, латиносов и афро-американцев, полагающих, что окрестный мир целиком принадлежит им одним; неоперившиеся чужаки, в которых оказалось превратились собственные дети и внуки, — Уолт просто неспешно проживает остаток своей жизни. До той самой ночи, когда кто-то попытается украсть его Гран Торино…

    Снималось в: США, Германия
    Киностудия: Double Nickel Entertainment, Gerber Pictures, Malpaso Productions, Matten Productions, Media Magik Entertainment, Village Roadshow Pictures, Warner Bros. GmbH
    Время просмотра: 01:56:23
    Перевод текста: Дублированный, профессиональный многоголосый, авторский (Сербин, Штамп)
    Субтитры: Русские, английские, французские, испанские


    Файл
    Кодек для видео: MPEG-2
    Качество фильма: DVD-9
    Информация о видео: NTSC 16:9 (720x480) VBR
    Информация о звуке: Русский, английский (Dolby AC3, 2 ch)



    Меню


    Перевод

    Аудио#1: Дубляж
    Аудио#2: Многоголосый (Первый канал)
    Аудио#3: Английский
    Аудио#4: Авторский (Ю.Сербин)
    Аудио#5: Авторский (Д.Штамп)


    DVDInfo
    Title: Локальный диск
    Size: 7.13 Gb ( 7 478 166 KBytes ) - DVD-9
    Enabled regions: 1, 2, 3, 4, 5, 6, 7, 8

    VTS_01 :
    Play Length: 01:56:23
    Video: NTSC 16:9 (720x480) VBR, Auto PanScan
    Audio:
    Russian (Dolby AC3, 2 ch)
    Russian (Dolby AC3, 2 ch)
    English (Dolby AC3, 2 ch)
    Russian (Dolby AC3, 2 ch)
    Russian (Dolby AC3, 2 ch)
    Subtitles:
    Russian
    English
    Francais
    Espanol
    Russian

    VTS_02 :
    Play Length: 00:00:12
    Video: NTSC 16:9 (720x480) VBR, Auto PanScan
    Audio:
    English (Dolby AC3, 6 ch)

    VTS_03 :
    Play Length: 00:09:26 00:04:00
    Video: NTSC 16:9 (720x480) VBR, Auto PanScan
    Audio:
    Russian (Dolby AC3, 2 ch)
    English (Dolby AC3, 2 ch)
    Subtitles:
    English
    Francais

    Menu Video:
    NTSC 4:3 (720x480) VBR
    Auto PanScan, Auto Letterboxed
    Menu Russian Language Unit :
    Root Menu
    Chapter (PTT) Menu




    MediaInfo
    Общее
    Полное имя : D:1АААГран ТориноVIDEO_TSVTS_01_1.VOB
    Формат : MPEG-PS
    Размер файла : 1024 Мбайт
    Продолжительность : 17 м.
    Режим общего битрейта : Переменный
    Общий поток : 8420 Кбит/сек
    Библиотека кодирования : (c) 1998-2007 Womble Multimedia, Inc. / MPEG Video Wizard (12/2007) / Mar 31 2008

    Видео
    Идентификатор : 224 (0xE0)
    Формат : MPEG Video
    Версия формата : Version 2
    Профиль формата : Main@Main
    Параметр BVOP формата : Да
    Параметр матрицы формата : Выборочная
    Параметр GOP формата : Variable
    Продолжительность : 17 м.
    Вид битрейта : Переменный
    Битрейт : 7293 Кбит/сек
    Максимальный битрейт : 9800 Кбит/сек
    Ширина : 720 пикселей
    Высота : 480 пикселей
    Соотношение сторон : 16:9
    Частота кадров : 23,976 кадра/сек
    Стандарт вещания : NTSC
    Цветовое пространство : YUV
    Субдискретизация насыщенности : 4:2:0
    Битовая глубина : 8 бит
    Тип развёртки : Прогрессивная
    Порядок развёртки : 2:3 Pulldown
    Метод сжатия : С потерями
    Бит/(Пиксели*Кадры) : 0.880
    TimeCode_FirstFrame : 01:00:02:16
    TimeCode_Source : Group of pictures t_head
    Размер потока : 887 Мбайт (87%)
    Библиотека кодирования : (c) 1998-2007 Womble Multimedia, Inc. / MPEG Video Wizard (12/2007) / Mar 31 2008

    Аудио #1
    Идентификатор : 189 (0xBD)-128 (0x80)
    Формат : AC-3
    Формат/Информация : Audio Coding 3
    Расширение режима : CM (complete main)
    Параметр Endianness формата : Big
    Режим смешивания : DVD-Video
    Продолжительность : 17 м.
    Вид битрейта : Постоянный
    Битрейт : 192 Кбит/сек
    Каналы : 2 канала
    Расположение каналов : Front: L R
    Частота : 48,0 КГц
    Битовая глубина : 16 бит
    Метод сжатия : С потерями
    Задержка видео : -83 мс.
    Размер потока : 23,3 Мбайт (2%)

    Аудио #2
    Идентификатор : 189 (0xBD)-129 (0x81)
    Формат : AC-3
    Формат/Информация : Audio Coding 3
    Расширение режима : CM (complete main)
    Параметр Endianness формата : Big
    Режим смешивания : DVD-Video
    Продолжительность : 17 м.
    Вид битрейта : Постоянный
    Битрейт : 192 Кбит/сек
    Каналы : 2 канала
    Расположение каналов : Front: L R
    Частота : 48,0 КГц
    Битовая глубина : 16 бит
    Метод сжатия : С потерями
    Задержка видео : -83 мс.
    Размер потока : 23,3 Мбайт (2%)

    Аудио #3
    Идентификатор : 189 (0xBD)-130 (0x82)
    Формат : AC-3
    Формат/Информация : Audio Coding 3
    Расширение режима : CM (complete main)
    Параметр Endianness формата : Big
    Режим смешивания : DVD-Video
    Продолжительность : 17 м.
    Вид битрейта : Постоянный
    Битрейт : 192 Кбит/сек
    Каналы : 2 канала
    Расположение каналов : Front: L R
    Частота : 48,0 КГц
    Битовая глубина : 16 бит
    Метод сжатия : С потерями
    Задержка видео : -83 мс.
    Размер потока : 23,3 Мбайт (2%)

    Аудио #4
    Идентификатор : 189 (0xBD)-131 (0x83)
    Формат : AC-3
    Формат/Информация : Audio Coding 3
    Расширение режима : CM (complete main)
    Параметр Endianness формата : Big
    Режим смешивания : DVD-Video
    Продолжительность : 17 м.
    Вид битрейта : Постоянный
    Битрейт : 192 Кбит/сек
    Каналы : 2 канала
    Расположение каналов : Front: L R
    Частота : 48,0 КГц
    Битовая глубина : 16 бит
    Метод сжатия : С потерями
    Задержка видео : -83 мс.
    Размер потока : 23,3 Мбайт (2%)

    Аудио #5
    Идентификатор : 189 (0xBD)-132 (0x84)
    Формат : AC-3
    Формат/Информация : Audio Coding 3
    Расширение режима : CM (complete main)
    Параметр Endianness формата : Big
    Режим смешивания : DVD-Video
    Продолжительность : 17 м.
    Вид битрейта : Постоянный
    Битрейт : 192 Кбит/сек
    Каналы : 2 канала
    Расположение каналов : Front: L R
    Частота : 48,0 КГц
    Битовая глубина : 16 бит
    Метод сжатия : С потерями
    Задержка видео : -83 мс.
    Размер потока : 23,3 Мбайт (2%)

    Текст #1
    Идентификатор : 189 (0xBD)-32 (0x20)
    Формат : RLE
    Формат/Информация : Run-length encoding
    Режим смешивания : DVD-Video

    Текст #2
    Идентификатор : 189 (0xBD)-33 (0x21)
    Формат : RLE
    Формат/Информация : Run-length encoding
    Режим смешивания : DVD-Video

    Текст #3
    Идентификатор : 189 (0xBD)-34 (0x22)
    Формат : RLE
    Формат/Информация : Run-length encoding
    Режим смешивания : DVD-Video

    Текст #4
    Идентификатор : 189 (0xBD)-35 (0x23)
    Формат : RLE
    Формат/Информация : Run-length encoding
    Режим смешивания : DVD-Video

    Меню




    Скриншоты для ознакомления

    Залил: YArl
    Размер скачиваемого торрента: 7.13 GB (7657641984 Bytes)

    Гран Торино / Gran Torino (2008) DVD-9 скачать через торрент бесплатно
    загрузка...
    Рейтинг →
     (голосов: 1, оценка 5/5, голосовать можно 1 раз )

    Другие торренты по теме:

  • Гран Торино / Gran Torino (2008) HDRip | A
  • Гран Торино / Gran Torino (2008) HDRip-AVC | D
  • Гран Торино / Gran Torino (2008) BDRip 1080p
  • Гран Торино / Gran Torino (2008) BDRip 1080p от denis 100 | D, P2, A скачать через торрент бесплатно


    • Комментарии (0):

      Информация

      Информация

        Посетители, находящиеся в группе Гости, не могут оставлять комментарии в данной новости.

        ↓ Меню



        ↓ Опрос

        А Вы добавили сайт в закладки?
        Да
        Не


        Top 10 за месяц (Фильмы)