.
Авторизация | Регистрация
Хочешь лучшие торренты? Добавь свой email!
Добавить
» » Обливион / Oblivion (2013) BDRip-HEVC 1080p от FREEISLAND скачать через торрент бесплатно




    Обливион / Oblivion (2013) BDRip-HEVC 1080p от FREEISLAND скачать через торрент бесплатно

    Опубликовал: Админ | Дата: 27-02-2015, 11:10 | Просмотров: 547


    Обливион / Oblivion
    (2013)
    BDRip 1080p HEVC от FREEISLAND






    Категория жанра: Фантастика, боевик, триллер, приключения, антиутопия

    Главный режиссер: Джозеф Косински

    Актеры:
    Том Круз, Ольга Куриленко, Морган Фримен, Андреа Райзборо, Николай Костер-Валдау, Мелисса Лео, Зои Белл, Эбигейл Лоу, Изабель Лоу, Дэвид Мэдисон

    Сюжет:
    Можно ли скучать по месту, в котором никогда не был, мечтать о девушке, которую никогда не видел? Добро пожаловать в будущее! Мы больше не можем называть Землю своим домом. Мы выиграли войну, но не смогли сохранить планету...



    Снималось в: США
    Снималось в: Amblin Entertainment
    Время просмотра: 2 ч. 4 м. 42 с.
    Перевод текста: Русский профессиональный (полное дублирование)

    Внимание!
    Рип в фомате HEVC, в настоящее время не поддерживается аппаратными проигрывателями.
    Для корректного воспроизведения может потребоваться обновление ПО.
    Владельцам несовместимого железа просьба не беспокоить, на трекере есть альтернативные релизы.


    Качество фильма: BDRip 1080p HEVC (SSIM: 0.9778207)
    Исходник: Blu-Ray Disc
    Контейнер: MKV
    Информация о видео кодек: x265
    Информация о видео: HEVC at 3845 Кбит/сек, 1920 x 808 (2.376) at 23.976 fps
    Информация о звуке: DTS at 768 Кбит/сек, 6 каналов, 48,0 КГц
    Субтитры 1: русские форсированные, на места без перевода (SRT/UTF-8)
    Субтитры 2: русские полные (SRT/UTF-8)
    Навигация по главам: есть

    MediaInfo


    Общее
    Уникальный идентификатор : 181021441080010583226723956995742813389 (0x882F761DFF22F63C9BB5E6401A90CCCD)
    Полное имя : Обливион Oblivion (2013) BDRip-HEVC 1080p by_F.HD.mkv
    Формат : Matroska
    Версия формата : Version 4 / Version 2
    Размер файла : 4,02 Гбайт
    Продолжительность : 2 ч. 4 м.
    Общий поток : 4613 Кбит/сек
    Название фильма : релиз от FREEISLAND.ORG
    Дата кодирования : UTC 2014-01-17 09:27:08
    Программа кодирования : mkvmerge v6.7.0 (;Back to the Ground;) 32bit built on Jan 8 2014 15:03:17
    Библиотека кодирования : libebml v1.3.0 libmatroska v1.4.1

    Видео
    Идентификатор : 1
    Формат : HEVC
    Формат/Информация : High Efficiency Video Coding
    Идентификатор кодека : V_MPEGH/ISO/HEVC
    Продолжительность : 2 ч. 4 м.
    Битрейт : 3753 Кбит/сек
    Ширина : 1920 пикселей
    Высота : 808 пикселей
    Соотношение сторон : 2,40:1
    Режим частоты кадров : Постоянный
    Частота кадров : 23,976 кадра/сек
    Бит/(Пиксели*Кадры) : 0.101
    Размер потока : 3,27 Гбайт (81%)
    Default : Да
    Forced : Нет

    Аудио
    Идентификатор : 2
    Формат : DTS
    Формат/Информация : Digital Theater Systems
    Режим : 16
    Параметр Endianness формата : Big
    Идентификатор кодека : A_DTS
    Продолжительность : 2 ч. 4 м.
    Вид битрейта : Постоянный
    Битрейт : 768 Кбит/сек
    Каналы : 6 каналов
    Расположение каналов : Front: L C R, Side: L R, LFE
    Частота : 48,0 КГц
    Битовая глубина : 24 бит
    Метод сжатия : С потерями
    Размер потока : 685 Мбайт (17%)
    Заголовок : Dub
    Язык : Russian
    Default : Да
    Forced : Нет

    Текст #1
    Идентификатор : 3
    Формат : UTF-8
    Идентификатор кодека : S_TEXT/UTF8
    Идентификатор кодека/Информация : UTF-8 Plain Text
    Заголовок : на места без перевода
    Язык : Russian
    Default : Да
    Forced : Да

    Текст #2
    Идентификатор : 4
    Формат : UTF-8
    Идентификатор кодека : S_TEXT/UTF8
    Идентификатор кодека/Информация : UTF-8 Plain Text
    Заголовок : Full
    Язык : Russian
    Default : Нет
    Forced : Нет

    Меню
    00:00:00.000 : :01
    00:04:31.354 : :02
    00:12:51.812 : :03
    00:21:25.284 : :04
    00:27:20.138 : :05
    00:35:30.336 : :06
    00:40:06.779 : :07
    00:46:16.023 : :08
    00:52:22.180 : :09
    01:01:59.716 : :10
    01:07:59.408 : :11
    01:16:25.831 : :12
    01:22:08.173 : :13
    01:25:31.751 : :14
    01:30:22.542 : :15
    01:36:30.367 : :16
    01:40:29.106 : :17
    01:46:27.422 : :18
    01:53:05.320 : :19
    01:58:23.846 : :20



    x265 (основные настройки энкода, не отображаются в MI)


    x265 info: HEVC encoder version 0.6 269-27c2dac98a3c
    x265 info: build info WindowsGCC 4.8.264 bit 8bpp
    x265 info: Main profile, Level-6.2 (Main tier)
    x265 info: WPP streams / pool / frames : 13 / 8 / 4
    x265 info: CU size : 64
    x265 info: Max RQT depth inter / intra : 1 / 1
    x265 info: ME / range / subpel / merge : umh / 40 / 5 / 3
    x265 info: Keyframe min / max : 23 / 23
    x265 info: Rate Control / AQ-Strength / CUTree : CRF-12.8 / 0.8 / 1
    x265 info: RDpenalty : 1
    x265 info: Lookahead / bframes / badapt : 40 / 6 / 2
    x265 info: b-pyramid / weightp / refs : 1 / 1 / 4
    x265 info: tools: rect amp esd rd=4 lft sao-lcu sign-hide



    Скриншоты для ознакомления












    СЭМПЛ

    Релиз подготовил:

    Что такое HEVC и как его смотреть?


    Что такое HEVC

    H.265/HEVC (High Efficiency Video Coding) - это новый стандарт кодирования видео.
    Стандарт H.265/HEVC является логическим продолжением стандарта H.264/AVC (Advanced Video Coding), и харакетризуется более эффективными алгоритмами сжатия, а также поддержкой высокого разрешения вплоть до 8K UHD (8192x4320).
    Первая версия стандарта H.265 была опубликована в начале 2013 года.


    Как смотреть HEVC

    Любителям решения из коробки - установить последнюю версию на выбор:
    Media Player Classic - Black Edition (MPC-BE)
    VLC media player
    Daum Pot Player
    GOM Media Player

    Любителям WMP и других плееров, использующих по умолчанию для воспроизведения системные кодеки сплитеры - установить K-Lite Codec Pack версии 10.1.0 и выше.

    Любимые плееры, не использующии по умолчанию для воспроизведения системные кодеки сплитеры, нужно перенастроить на использование оных.

    Залил: snаyper
    Размер скачиваемого торрента: 4.02 GB (4314481178 Bytes)

    Обливион / Oblivion (2013) BDRip-HEVC 1080p от FREEISLAND скачать через торрент бесплатно
    загрузка...
    Рейтинг →
     (голосов: 1, оценка 3/5, голосовать можно 1 раз )

    Другие торренты по теме:

  • Обливион 2: Отпор / Город забвения / Oblivion 2: Backlash (1996) DVD5
  • OST - Обливион / Oblivion (2013) MP3
  • Обливион / Oblivion (2013) BDRip 720p от Hot-Film | Лицензия
  • Обливион / Oblivion (2013) BDRip-720p | Дополнительные материалы
  • Обливион / Oblivion (2013) HDRip-AVC | D
  • Обливион / Oblivion (2013) DVD5 от youtracker | D | сжатый
  • Обливион / Oblivion (2013) DVD9 R5 от youtracker | D | лицензия
  • Обливион / Oblivion (2013) BDRip-AVC от MediaClub | D, A


    • Комментарии (0):

      Информация

      Информация

        Посетители, находящиеся в группе Гости, не могут оставлять комментарии в данной новости.

        ↓ Меню



        ↓ Опрос

        А Вы добавили сайт в закладки?
        Да
        Не


        Top 10 за месяц (Фильмы)