.
Авторизация | Регистрация
Хочешь лучшие торренты? Добавь свой email!
Добавить
» » Развод в большом городе / What Maisie Knew (2012) BDRip 1080p | P | L2 скачать через торрент бесплатно




    Развод в большом городе / What Maisie Knew (2012) BDRip 1080p | P | L2 скачать через торрент бесплатно

    Опубликовал: Админ | Дата: 27-02-2015, 11:10 | Просмотров: 266



    Детально о кино
    Русское название: Развод в большом городе
    Русское название в мировом прокате: What Maisie Knew
    Создали в: 2012
    Категория жанра: Драма
    Главный режиссер: Скотт МакГихи, Дэвид Сигел
    Актеры: Джулианна Мур, Александр Скарсгард, Оната Эйприл, Джоэнна Вандерхам, Стив Куган, Сэди Рэй, Джесси Стоун Спадаччини, Диана Гарсиа, Амелия Кэмпбелл, Мэдди Кормэн

    О Фильме: Действие происходит в современном Нью-Йорке. Героиня истории — шестилетняя девочка Мейзи, ставшая свидетельницей тяжелого развода своих родителей - рок-звезды и арт-дилера.



    Снималось в: США
    Время просмотра: 01:38:55
    Перевод текста: Профессиональный (многоголосый, закадровый)

    Файл
    Качество фильма: BDRip 1080p
    Тип видео: MKV
    Информация о видео: MPEG4/AVC, 1920x800 (2,40:1), 8846 Кбит/с, 23.976 кадра/с
    Информация о звуке 1: Russian, AС3, 192 Кбит/с (2 канала)- Профессиональный многоголосый
    Информация о звуке 2: Russian, AС3, 448 Кбит/с (6 каналов) - Любительский двухголосый (Артём Белоконский, Кристина Истомина)
    Информация о звуке 3: English, AC3, 640 Кбит/с (6 каналов) - Оригинал
    Субтитры: Русские, английские (UTF-8)
    Навигация по главам: Есть

    MI:
    Общее
    Уникальный идентификатор : 235374448313449292058902696470846624247 (0xB1137845CC91EFE684A3358938F7D1F7)
    Полное имя : What Maise Knew.(2012).1080p.BDRip.mkv
    Формат : Matroska
    Версия формата : Version 2
    Размер файла : 6,99 Гбайт
    Продолжительность : 1 ч. 38 м.
    Общий поток : 10,1 Мбит/сек
    Дата кодирования : UTC 2014-01-18 14:22:49
    Программа кодирования : mkvmerge v5.8.0 (;No Sleep / Pillow;) built on Sep 2 2012 15:37:04
    Библиотека кодирования : libebml v1.2.3 libmatroska v1.3.0

    Видео
    Идентификатор : 1
    Формат : AVC
    Формат/Информация : Advanced Video Codec
    Профиль формата : High@L4.1
    Параметр CABAC формата : Да
    Параметр ReFrames формата : 5 кадров
    Идентификатор кодека : V_MPEG4/ISO/AVC
    Продолжительность : 1 ч. 38 м.
    Битрейт : 8846 Кбит/сек
    Ширина : 1920 пикселей
    Высота : 800 пикселей
    Соотношение сторон : 2,40:1
    Режим частоты кадров : Постоянный
    Частота кадров : 23,976 кадра/сек
    Цветовое пространство : YUV
    Субдискретизация насыщенности : 4:2:0
    Битовая глубина : 8 бит
    Тип развёртки : Прогрессивная
    Бит/(Пиксели*Кадры) : 0.240
    Размер потока : 5,96 Гбайт (85%)
    Библиотека кодирования : x264 core 133 r2334 a3ac64b
    Настройки программы : cabac=1 / ref=5 / deblock=1:0:0 / analyse=0x3:0x133 / me=umh / subme=7 / psy=1 / psy_rd=1.00:0.00 / mixed_ref=1 / me_range=16 / chroma_me=1 / trellis=1 / 8x8dct=1 / cqm=0 / deadzone=21,11 / fast_pskip=0 / chroma_qp_offset=-2 / threads=36 / lookahead_threads=6 / sliced_threads=0 / nr=0 / decimate=1 / interlaced=0 / bluray_compat=0 / constrained_intra=0 / bframes=3 / b_pyramid=2 / b_adapt=1 / b_bias=0 / direct=1 / weightb=1 / open_gop=0 / weightp=2 / keyint=250 / keyint_min=23 / scenecut=40 / intra_refresh=0 / rc_lookahead=40 / rc=2pass / mbtree=1 / bitrate=8846 / ratetol=1.0 / qcomp=0.60 / qpmin=0 / qpmax=69 / qpstep=4 / cplxblur=20.0 / qblur=0.5 / ip_ratio=1.40 / aq=1:1.00
    Язык : English
    Default : Да
    Forced : Нет

    Аудио #1
    Идентификатор : 2
    Формат : AC-3
    Формат/Информация : Audio Coding 3
    Расширение режима : CM (complete main)
    Параметр Endianness формата : Big
    Идентификатор кодека : A_AC3
    Продолжительность : 1 ч. 38 м.
    Вид битрейта : Постоянный
    Битрейт : 192 Кбит/сек
    Каналы : 2 канала
    Расположение каналов : Front: L R
    Частота : 48,0 КГц
    Битовая глубина : 16 бит
    Метод сжатия : С потерями
    Размер потока : 136 Мбайт (2%)
    Заголовок : MVO | 192 kbps
    Язык : Russian
    Default : Да
    Forced : Нет

    Аудио #2
    Идентификатор : 3
    Формат : AC-3
    Формат/Информация : Audio Coding 3
    Расширение режима : CM (complete main)
    Параметр Endianness формата : Big
    Идентификатор кодека : A_AC3
    Продолжительность : 1 ч. 38 м.
    Вид битрейта : Постоянный
    Битрейт : 448 Кбит/сек
    Каналы : 6 каналов
    Расположение каналов : Front: L C R, Side: L R, LFE
    Частота : 48,0 КГц
    Битовая глубина : 16 бит
    Метод сжатия : С потерями
    Размер потока : 317 Мбайт (4%)
    Заголовок : DVO | 448 kbps - Артём Белоконский, Кристина Истомина
    Язык : Russian
    Default : Нет
    Forced : Нет

    Аудио #3
    Идентификатор : 4
    Формат : AC-3
    Формат/Информация : Audio Coding 3
    Расширение режима : CM (complete main)
    Параметр Endianness формата : Big
    Идентификатор кодека : A_AC3
    Продолжительность : 1 ч. 38 м.
    Вид битрейта : Постоянный
    Битрейт : 640 Кбит/сек
    Каналы : 6 каналов
    Расположение каналов : Front: L C R, Side: L R, LFE
    Частота : 48,0 КГц
    Битовая глубина : 16 бит
    Метод сжатия : С потерями
    Размер потока : 453 Мбайт (6%)
    Заголовок : ENG
    Язык : English
    Default : Нет
    Forced : Нет

    Текст #1
    Идентификатор : 5
    Формат : UTF-8
    Идентификатор кодека : S_TEXT/UTF8
    Идентификатор кодека/Информация : UTF-8 Plain Text
    Заголовок : Eng
    Язык : English
    Default : Нет
    Forced : Нет

    Текст #2
    Идентификатор : 6
    Формат : UTF-8
    Идентификатор кодека : S_TEXT/UTF8
    Идентификатор кодека/Информация : UTF-8 Plain Text
    Заголовок : Rus
    Язык : Russian
    Default : Нет
    Forced : Нет

    Меню
    00:00:00.000 : en:00:00:00.000
    00:08:47.944 : en:00:08:47.944
    00:15:39.230 : en:00:15:39.230
    00:23:45.215 : en:00:23:45.215
    00:31:58.625 : en:00:31:58.625
    00:39:14.227 : en:00:39:14.227
    00:48:48.759 : en:00:48:48.759
    00:56:55.037 : en:00:56:55.037
    01:06:00.373 : en:01:06:00.373
    01:17:18.092 : en:01:17:18.092
    01:28:08.200 : en:01:28:08.200
    01:35:03.573 : en:01:35:03.573

    Скриншоты для ознакомления:


    Релиз подготовил:
    Размер скачиваемого торрента: 6.99 GB (7503013366 Bytes)

    Развод в большом городе / What Maisie Knew (2012) BDRip 1080p | P | L2 скачать через торрент бесплатно
    загрузка...
    Рейтинг →
     (голосов: 1, оценка 3/5, голосовать можно 1 раз )

    Другие торренты по теме:

  • Развод в большом городе / What Maisie Knew (2012) BDRip 720p | L1
  • Развод в большом городе / What Maisie Knew (2012) HDRip | L1
  • Развод в большом городе / What Maisie Knew (2012) HDRip | Р скачать через торрент бесплатно
  • Развод в большом городе / What Maisie Knew (2012) HDRip от Sanjar NeoJet | КПК скачать через торрент бесплатно
  • Развод в большом городе / What Maisie Knew (2012) BDRip 720p от CINEMANIA | P, L2, L1 скачать через торрент бесплатно
  • Развод в большом городе / What Maisie Knew (2012) BDRip 1080p от CINEMANIA | P, L2, L1 скачать через торрент бесплатно
  • Развод в большом городе / What Maisie Knew (2012) HDRip от Scarabey


    • Комментарии (0):

      Информация

      Информация

        Посетители, находящиеся в группе Гости, не могут оставлять комментарии в данной новости.

        ↓ Меню



        ↓ Опрос

        А Вы добавили сайт в закладки?
        Да
        Не


        Top 10 за месяц (Фильмы)