.
Авторизация | Регистрация
Хочешь лучшие торренты? Добавь свой email!
Добавить
» » Анжелика, маркиза ангелов / Angelique, marquise des anges (1964) BDRip by msltel | D, P скачать через торрент бесплатно




    Анжелика, маркиза ангелов / Angelique, marquise des anges (1964) BDRip by msltel | D, P скачать через торрент бесплатно

    Опубликовал: Админ | Дата: 27-02-2015, 11:10 | Просмотров: 423



    Русское название: Анжелика, маркиза ангелов
    Русское название в мировом прокате: Angelique, marquise des anges
    Создали в: 1964
    Категория жанра: Мелодрама, приключения
    Снималось в: Франция, Германия (ФРГ), Италия, Prodis, Liber Film
    Главный режиссер: Бернар Бордери
    Актеры: Мишель Мерсье, Робер Оссейн, Жан Рошфор, Клод Жиро, Джулиано Джемма, Шарль Ренье, Жак Тожа, Мадлен ЛеБо, Жан Топар, Бернар Воринже, Филипп Лемэр, Жан Озенн, Франсуа Мэтр

    Сюжет фильма: Необыкновенно красивая бедная аристократка вынуждена выйти замуж за Жоффрея де Пейрака. Несмотря на его внешность, она со временем полюбила его. Влюблённые живут счастливо в своём замке, пока однажды к ним не приезжает король. Восхищённый красотой Анжелики Людовик XIV хочет сделать её своей наложницей… Экранизация многотомного романа Анн и Сержа Голон Анжелика.

    Качество фильма: BDRip
    Размер скачиваемого торрента: 2.48 ГБ
    Время просмотра: 01:55:52

    Информация о видео: XviD, 1900 Kбит/с, 720x304
    Информация о звуке: русский, 48 kHz, AC3, 2 ch, 384 kbps avg, Дублированный, с добавлением многоголоски (HTB)

    Внешние файлы
    Информация о звуке: русский, 48 kHz, AC3, 2 ch, 384 kbps avg, Профессиональный многоголосый, НТВ
    Информация о звуке: французский, 48 kHz, AC3, 2 ch, 384 kbps avg, Оригинал
    Субтитры: русские

    Исходник: andarmo (Кинозал)

    Сравнение с исходником



    MediaInfo
    Общее
    Полное имя : E:VideoAngelika.1.1964.XviD.BDRipAngelika.1.1964.MVO.rus.HTB.ac3
    Формат : AC-3
    Формат/Информация : Audio Coding 3
    Размер файла : 318 Мбайт
    Продолжительность : 1 ч. 55 м.
    Режим общего битрейта : Постоянный
    Общий поток : 384 Кбит/сек

    Аудио
    Формат : AC-3
    Формат/Информация : Audio Coding 3
    Расширение режима : CM (complete main)
    Параметр Endianness формата : Big
    Продолжительность : 1 ч. 55 м.
    Вид битрейта : Постоянный
    Битрейт : 384 Кбит/сек
    Каналы : 2 канала
    Расположение каналов : Front: L R
    Частота : 48,0 КГц
    Битовая глубина : 16 бит
    Метод сжатия : С потерями
    Размер потока : 318 Мбайт (100%)

    Общее
    Полное имя : E:VideoAngelika.1.1964.XviD.BDRipAngelika.1.1964.Original.fre.ac3
    Формат : AC-3
    Формат/Информация : Audio Coding 3
    Размер файла : 318 Мбайт
    Продолжительность : 1 ч. 55 м.
    Режим общего битрейта : Постоянный
    Общий поток : 384 Кбит/сек

    Аудио
    Формат : AC-3
    Формат/Информация : Audio Coding 3
    Расширение режима : CM (complete main)
    Параметр Endianness формата : Big
    Продолжительность : 1 ч. 55 м.
    Вид битрейта : Постоянный
    Битрейт : 384 Кбит/сек
    Каналы : 2 канала
    Расположение каналов : Front: L R
    Частота : 48,0 КГц
    Битовая глубина : 16 бит
    Метод сжатия : С потерями
    Размер потока : 318 Мбайт (100%)

    Общее
    Полное имя : E:VideoAngelika.1.1964.XviD.BDRipAngelika.1.1964.rus.srt
    Формат : SubRip
    Размер файла : 117 Кбайт

    Текст
    Формат : SubRip
    Метод сжатия : Без потерь

    Общее
    Полное имя : E:VideoAngelika.1.1964.XviD.BDRipAngelika.1.1964.XviD.BDRip.avi
    Формат : AVI
    Формат/Информация : Audio Video Interleave
    Размер файла : 1,86 Гбайт
    Продолжительность : 1 ч. 55 м.
    Общий поток : 2293 Кбит/сек
    Программа кодирования : VirtualDubMod 1.5.10.2 (build 2540/release)
    Библиотека кодирования : VirtualDubMod build 2540/release

    Видео
    Идентификатор : 0
    Формат : MPEG-4 Visual
    Профиль формата : Advanced Simple@L5
    Параметр BVOP формата : 1
    Параметр QPel формата : Нет
    Параметр GMC формата : Без точки перехода
    Параметр матрицы формата : Default (H.263)
    Режим смешивания : Сжатый битовый поток
    Идентификатор кодека : XVID
    Идентификатор кодека/Подсказка : XviD
    Продолжительность : 1 ч. 55 м.
    Битрейт : 1900 Кбит/сек
    Ширина : 720 пикселей
    Высота : 304 пикселя
    Соотношение сторон : 2,35:1
    Частота кадров : 24,000 кадра/сек
    Цветовое пространство : YUV
    Субдискретизация насыщенности : 4:2:0
    Битовая глубина : 8 бит
    Тип развёртки : Прогрессивная
    Метод сжатия : С потерями
    Бит/(Пиксели*Кадры) : 0.362
    Размер потока : 1,54 Гбайт (83%)
    Библиотека кодирования : XviD 1.2.1 (UTC 2008-12-04)

    Аудио
    Идентификатор : 1
    Формат : AC-3
    Формат/Информация : Audio Coding 3
    Расширение режима : CM (complete main)
    Параметр Endianness формата : Big
    Идентификатор кодека : 2000
    Продолжительность : 1 ч. 55 м.
    Вид битрейта : Постоянный
    Битрейт : 384 Кбит/сек
    Каналы : 2 канала
    Расположение каналов : Front: L R
    Частота : 48,0 КГц
    Битовая глубина : 16 бит
    Метод сжатия : С потерями
    Размер потока : 318 Мбайт (17%)
    Выравнивание : Разделение по промежуткам
    Продолжительность промежутка : 42 мс. (1,00 видеокадр)
    Время предзагрузки промежутка : 500 мс.
    Скриншоты для ознакомления



    Залил: msltel
    Размер скачиваемого торрента: 2.48 GB (2660019845 Bytes)

    Анжелика, маркиза ангелов / Angelique, marquise des anges (1964) BDRip by msltel | D, P скачать через торрент бесплатно
    загрузка...
    Рейтинг →
     (голосов: 1, оценка 5/5, голосовать можно 1 раз )

    Другие торренты по теме:

  • Анжелика, маркиза ангелов (2014) скачать через торрент бесплатно
  • Анжелика, маркиза ангелов / Angelique, marquise des anges (1964) HDTV 1080i от ClubTorrent | D
  • Анжелика, маркиза ангелов / Angelique, marquise des anges (1964) HDTVRip от Leon-masl
  • Анжелика, маркиза ангелов / Angelique, marquise des anges (1964) BDRip 720p by msltel | D, P
  • Анжелика, маркиза ангелов / Angelique, marquise des anges (1964) BDRip 1080p by msltel | D, P скачать через торрент бесплатно
  • Анжелика, маркиза ангелов / Angelique, marquise des anges (2013) DVDRip от New-Team | D | лицензия
  • Анжелика, маркиза ангелов / Anglique, marquise des anges (2013) DVDRip | Лицензия
  • Анжелика, маркиза ангелов / Angelique, marquise des anges (2013) DVD9 R5 от New-Team | D | лицензия скачать через торрент бесплатно


    • Комментарии (0):

      Информация

      Информация

        Посетители, находящиеся в группе Гости, не могут оставлять комментарии в данной новости.

        ↓ Меню



        ↓ Опрос

        А Вы добавили сайт в закладки?
        Да
        Не


        Top 10 за месяц (Фильмы)