.
Авторизация | Регистрация
» » Крепкие тела / Hardbodies (1984) DVDRip торрент скачать бесплатно




    Крепкие тела / Hardbodies (1984) DVDRip торрент скачать бесплатно

    Опубликовал: Админ | Дата: 27-02-2015, 11:10 | Просмотров: 1539



    Русское название:Крепкие тела
    Русское название в мировом прокате:Hardbodies
    Перевод текста: Профессиональный (многоголосый, закадровый), cубтитры: отсутствуют
    Тип видео: DVDRip, AVI, XviD, MP3
    Снималось в: США
    Главный режиссер: Марк Гриффитс
    Категория жанра: эротика, комедия
    Время просмотра: 01:26:49
    Создали в: 1984
    Актеры: Грант Крамер, Тил Робертс, Гари Вуд, Майкл Раппорт, Сорреллс Пиккард, Роберта Коллинз, Синди Сильвер, Кортни Гейнс, Кристи Сомерс, Кристал Шоу

    Сюжет: Трое немолодых мужчин отправляются отдыхать на побережье Калифорнии. Вскоре они понимают, что хорошего отеля и кабриолета недостаточно, чтобы пользоваться успехом у девушек. Тогда друзья нанимают смазливого студента, который берется помочь им вернуть форму.



    Информация о видео: 672x320 (2.10:1), 23.976 fps, XviD MPEG-4, 1061 kbps avg, 0.21 bit/pixel
    Информация о звуке: 48 kHz, MPEG Layer 3, 2 ch, 128.00 kbps avg


    Медиаинфо

    Общее
    Полное имя : Cocuments and SettingsАдминМои документыDownloadsHardbodies.avi
    Формат : AVI
    Формат/Информация : Audio Video Interleave
    Размер файла : 745 Мбайт
    Продолжительность : 1 ч. 26 м.
    Общий поток : 1199 Кбит/сек
    Программа кодирования : VirtualDubMod 1.5.10.2 (build 2540/release)
    Библиотека кодирования : VirtualDubMod build 2540/release

    Видео
    Идентификатор : 0
    Формат : MPEG-4 Visual
    Профиль формата : Advanced Simple@L5
    Параметр BVOP формата : 2
    Параметр QPel формата : Нет
    Параметр GMC формата : Без точки перехода
    Параметр матрицы формата : Default (MPEG)
    Режим смешивания : Сжатый битовый поток
    Идентификатор кодека : XVID
    Идентификатор кодека/Подсказка : XviD
    Продолжительность : 1 ч. 26 м.
    Битрейт : 1062 Кбит/сек
    Ширина : 672 пикселя
    Высота : 320 пикселей
    Соотношение сторон : 2,100
    Частота кадров : 23,976 кадра/сек
    Цветовое пространство : YUV
    Субдискретизация насыщенности : 4:2:0
    Битовая глубина : 8 бит
    Тип развёртки : Прогрессивная
    Метод сжатия : С потерями
    Бит/(Пиксели*Кадры) : 0.206
    Размер потока : 659 Мбайт (89%)
    Библиотека кодирования : XviD 1.2.1 (UTC 2008-12-04)

    Аудио
    Идентификатор : 1
    Формат : MPEG Audio
    Версия формата : Version 1
    Профиль формата : Layer 3
    Режим : Joint stereo
    Расширение режима : MS Stereo
    Идентификатор кодека : 55
    Идентификатор кодека/Подсказка : MP3
    Продолжительность : 1 ч. 26 м.
    Вид битрейта : Постоянный
    Битрейт : 128 Кбит/сек
    Каналы : 2 канала
    Частота : 48,0 КГц
    Метод сжатия : С потерями
    Размер потока : 79,4 Мбайт (11%)
    Выравнивание : Соединение по промежуткам
    Продолжительность промежутка : 42 мс. (1,00 видеокадр)
    Время предзагрузки промежутка : 504 мс.



    Показать скриншоты























    Показать раскадровку







    Залил: Bagira M
    Размер скачиваемого торрента: 744.58 MB (780744704 Bytes)

    Крепкие тела / Hardbodies (1984) DVDRip торрент скачать бесплатно
    загрузка...
    Рейтинг →
     (голосов: 1, оценка 4/5, голосовать можно 1 раз )

    Другие торренты по теме:

  • Крепкие тела 2 / Hardbodies 2 (1986) DVDRip торрент скачать бесплатно
  • Крепкие тела Крепкие тела 2 / Hardbodies Hardbodies 2 (1984-1986) DVDRip-AVC торрент скачать бесплатно
  • Крепкие тела 2 / Hardbodies 2 / 1986 / ПД / DVDRip скачать торрент бесплатно
  • Крепкие тела / Hardbodies (1984) BDRip 720p | P скачать торрент бесплатно
  • Крепкие тела / Hardbodies (1984) HDRip от MegaPeer | P скачать торрент бесплатно
  • Крепкие тела / Hardbodies (1984) BDRip 1080p | P скачать торрент бесплатно


    • Комментарии (0):

      Информация

      Информация

        Посетители, находящиеся в группе Гости, не могут оставлять комментарии в данной новости.

        ↓ Меню



        ↓ Опрос

        А Вы добавили сайт в закладки?
        Да
        Не


        Top 10 за неделю (Фильмы)