.
Авторизация | Регистрация
» » Все меры предосторожности / Extreme Prejudice (1987) HDRip | P торрент скачать бесплатно




    Все меры предосторожности / Extreme Prejudice (1987) HDRip | P торрент скачать бесплатно

    Опубликовал: Админ | Дата: 27-02-2015, 11:10 | Просмотров: 313


    Все меры предосторожности / Extreme Prejudice



    Детально о кино:
    Создали в: 1987
    Снималось в: США
    Категория жанра: боевик, драма, криминал
    Время просмотра: 01:40:44
    Перевод текста: Прфессиональный (многоголосый, закадровый)
    Субтитры: нет

    Главный режиссер: Уолтер Хилл / Walter Hill

    Актеры: Ник Нолти, Пауэрс Бут, Майкл Айронсайд, Мария Кончита Алонсо, Рип Торн, Клэнси Браун, Уильям Форсайт


    Джек Бентин, неуязвимый техасский рейнджер, должен проявить крутой характер. Ведь его друг детства — один из главарей контрабандной перевозки наркотиков через мексиканскую границу, и шесть агентов спецслужб получают задание захватить наркоторговца. Захочет ли Джек защитить своего друга?

    О файле:
    Качество фильма: HDRip
    Информация о видео: Xvid, 720x400, ~1714 Кбит/сек
    Информация о звуке: AC3 5.1, 384 Кбит/сек

    MediaInfo:
    Формат : AVI
    Формат/Информация : Audio Video Interleave
    Размер файла : 1,48 Гбайт
    Продолжительность : 1 ч. 40 м.
    Общий поток : 2107 Кбит/сек
    Режиссёр : Consul
    Программа кодирования : VirtualDubModRus 1.5.10.2 (build 2542/release)
    Библиотека кодирования : VirtualDubMod build 2542/release

    Видео
    Идентификатор : 0
    Формат : MPEG-4 Visual
    Профиль формата : Advanced Simple@L5
    Параметр BVOP формата : 1
    Параметр QPel формата : Нет
    Параметр GMC формата : Без точки перехода
    Параметр матрицы формата : Выборочная
    Идентификатор кодека : XVID
    Идентификатор кодека/Подсказка : XviD
    Продолжительность : 1 ч. 40 м.
    Битрейт : 1714 Кбит/сек
    Ширина : 720 пикселей
    Высота : 400 пикселей
    Соотношение сторон : 16:9
    Частота кадров : 25,000 кадров/сек
    Цветовое пространство : YUV
    Субдискретизация насыщенности : 4:2:0
    Битовая глубина : 8 бит
    Тип развёртки : Прогрессивная
    Метод сжатия : С потерями
    Бит/(Пиксели*Кадры) : 0.238
    Размер потока : 1,21 Гбайт (81%)
    Библиотека кодирования : XviD 73

    Аудио
    Идентификатор : 1
    Формат : AC-3
    Формат/Информация : Audio Coding 3
    Идентификатор кодека : 2000
    Продолжительность : 1 ч. 40 м.
    Вид битрейта : Постоянный
    Битрейт : 384 Кбит/сек
    Каналы : 6 каналов
    Частота : 48,0 КГц
    Метод сжатия : С потерями
    Размер потока : 277 Мбайт (18%)
    Выравнивание : Разделение по промежуткам
    Продолжительность промежутка : 40 мс. (1,00 видеокадр)
    Время предзагрузки промежутка : 500 мс.
    Скриншоты для ознакомления


    Размер скачиваемого торрента: 1.48 GB (1592129536 Bytes)

    Все меры предосторожности / Extreme Prejudice (1987) HDRip | P торрент скачать бесплатно
    загрузка...
    Рейтинг →
     (голосов: 1, оценка 3/5, голосовать можно 1 раз )

    Другие торренты по теме:

  • Все меры предосторожности / Extreme Prejudice (1987) BDRip 720p | P, А торрент скачать бесплатно
  • Все меры предосторожности / Extreme Prejudice (1987) HDRip | A скачать торрент бесплатно


    • Комментарии (0):

      Информация

      Информация

        Посетители, находящиеся в группе Гости, не могут оставлять комментарии в данной новости.

        ↓ Меню



        ↓ Опрос

        А Вы добавили сайт в закладки?
        Да
        Не


        Top 10 за неделю (Фильмы)