.
Авторизация | Регистрация
Хочешь лучшие торренты? Добавь свой email!
Добавить
» » Конец хутора Берхоф / Znik samoty Berhof (1985) DVDRip от NovaLan | L1 торрент скачать бесплатно




    Конец хутора Берхоф / Znik samoty Berhof (1985) DVDRip от NovaLan | L1 торрент скачать бесплатно

    Опубликовал: Админ | Дата: 27-02-2015, 11:10 | Просмотров: 329





    Снималось в: Чехословакия
    Создали в: Filmov? studio Barrandov
    Категория жанра: Драма
    Создали в: 1985

    Время просмотра: 01:37:52


    Перевод текста: Любительский одноголосый (Andi)

    Оригинальная аудиодорожка: Чешская

    Главный режиссер: Иржи Свобода


    Актеры: Яна Брейхова, Радослав Брзобогаты, Милан Князко, Любомир Костелка, Ладислав Крживачек, Мирослав Махачек, Ежи Новак, Витезлав Поханка, Эвелина Штеймарова, Петра Ванчикова


    Сюжет: Время первого послевоенного лета в чешско-немецко-польском приграничье. Жители хутора Берхоф становятся заложниками боевиков группы Вервольф, несмирившихся с поражением Германии...



    Исходник: DVD9 R2

    Тип релиза: DVDRip

    Контейнер: AVI


    Информация о видео: 704x528 (1.33:1), 23.976 fps, XviD ~1735 kbps avg, 0.19 bit/pixel
    Информация о звуке: #1: 48 kHz, AC3 2.0, ~192.00 kbps avg (RUS)
    Информация о звуке: #2: 48 kHz, AC3 2.0, ~192.00 kbps avg (CZECH)



    MediaInfo
    Общее
    Полное имя : D:1АААКонец хутора Берхоф.avi
    Формат : AVI
    Формат/Информация : Audio Video Interleave
    Размер файла : 1,46 Гбайт
    Продолжительность : 1 ч. 37 м.
    Общий поток : 2134 Кбит/сек
    Программа кодирования : VirtualDubMod 1.5.10.2 (build 2540/release)
    Библиотека кодирования : VirtualDubMod build 2540/release

    Видео
    Идентификатор : 0
    Формат : MPEG-4 Visual
    Профиль формата : Advanced Simple@L5
    Параметр BVOP формата : 2
    Параметр QPel формата : Нет
    Параметр GMC формата : Без точки перехода
    Параметр матрицы формата : Default (MPEG)
    Режим смешивания : Сжатый битовый поток
    Идентификатор кодека : XVID
    Идентификатор кодека/Подсказка : XviD
    Продолжительность : 1 ч. 37 м.
    Битрейт : 1736 Кбит/сек
    Ширина : 704 пикселя
    Высота : 528 пикселей
    Соотношение сторон : 4:3
    Частота кадров : 23,976 кадра/сек
    Цветовое пространство : YUV
    Субдискретизация насыщенности : 4:2:0
    Битовая глубина : 8 бит
    Тип развёртки : Прогрессивная
    Метод сжатия : С потерями
    Бит/(Пиксели*Кадры) : 0.195
    Размер потока : 1,19 Гбайт (81%)
    Библиотека кодирования : XviD 1.2.1 (UTC 2008-12-04)

    Аудио #1
    Идентификатор : 1
    Формат : AC-3
    Формат/Информация : Audio Coding 3
    Расширение режима : CM (complete main)
    Параметр Endianness формата : Big
    Идентификатор кодека : 2000
    Продолжительность : 1 ч. 37 м.
    Вид битрейта : Постоянный
    Битрейт : 192 Кбит/сек
    Каналы : 2 канала
    Расположение каналов : Front: L R
    Частота : 48,0 КГц
    Битовая глубина : 16 бит
    Метод сжатия : С потерями
    Размер потока : 134 Мбайт (9%)
    Выравнивание : Разделение по промежуткам
    Продолжительность промежутка : 42 мс. (1,00 видеокадр)
    Время предзагрузки промежутка : 500 мс.

    Аудио #2
    Идентификатор : 2
    Формат : AC-3
    Формат/Информация : Audio Coding 3
    Расширение режима : CM (complete main)
    Параметр Endianness формата : Big
    Идентификатор кодека : 2000
    Продолжительность : 1 ч. 37 м.
    Вид битрейта : Постоянный
    Битрейт : 192 Кбит/сек
    Каналы : 2 канала
    Расположение каналов : Front: L R
    Частота : 48,0 КГц
    Битовая глубина : 16 бит
    Метод сжатия : С потерями
    Размер потока : 134 Мбайт (9%)
    Выравнивание : Разделение по промежуткам
    Продолжительность промежутка : 42 мс. (1,00 видеокадр)
    Время предзагрузки промежутка : 500 мс.







    Скриншоты для ознакомления




    Релиз группа:

    Автор рипа:
    Залил: YArl
    Размер скачиваемого торрента: 1.46 GB (1566357504 Bytes)

    Конец хутора Берхоф / Znik samoty Berhof (1985) DVDRip от NovaLan | L1 торрент скачать бесплатно
    загрузка...
    Рейтинг →
     (голосов: 1, оценка 4/5, голосовать можно 1 раз )

    Другие торренты по теме:

  • OST - Конец света / End Of Days Soundtrack (1999) MP3
  • Счастливый конец / Хэппи Энды / Happy Endings (2012) WEB-DL 720p | BraveSound
  • ЧП. Расследование. Билет в один конец (2013) SATRip
  • Конец света / End of Days (1999) BDRip от Torrent-Xzona | КПК
  • OST - Горец 4: Конец игры / Highlander: EndGame (2000) MP3
  • 2016: Конец ночи / Hell (2011) HDRip-AVC
  • Кларк Артур - Конец детства (2011) MP3
  • Цена молчания / Конец молчания / La fin du silence / The End of Silence (2011) DVDRip от GalVid


    • Комментарии (0):

      Информация

      Информация

        Посетители, находящиеся в группе Гости, не могут оставлять комментарии в данной новости.

        ↓ Меню



        ↓ Опрос

        А Вы добавили сайт в закладки?
        Да
        Не


        Top 10 за месяц (Фильмы)