.
Авторизация | Регистрация
Хочешь лучшие торренты? Добавь свой email!
Добавить
» » Как Я Встретил Вашу Маму / How I Met Your Mother (2013) WEB-DL 1080p | Кураж-Бамбей торрент скачать бесплатно




    Как Я Встретил Вашу Маму / How I Met Your Mother (2013) WEB-DL 1080p | Кураж-Бамбей торрент скачать бесплатно

    Опубликовал: Админ | Дата: 27-02-2015, 11:10 | Просмотров: 309

    Как Я Встретил Вашу Маму / How I Met Your MotherГод выпуска: 2013-2014
    Страна: США
    Жанр: Комедия
    Продолжительность: ~ 00:22:00
    Перевод: Профессиональный (одноголосый закадровый) - Кураж-БамбейРежиссёр: Картер Бейс, Крейг Томас
    В ролях: Джош Рэднор (Тед Мосби), Джейсон Сигел (Маршалл Эриксен), Коби Смалдерс (Робин Шербатски), Нил Патрик Хэррис (Барни Стинсон), Эллисон Хэнниган (Лили Алдрин)Описание: Комедия про Теда и про то, как он влюбился. Все неприятности начинаются с того, что лучший друг Теда, Маршалл вдруг неожиданно сообщил, что он хочет сделать предложение своей давней подруге, Лили, воспитательнице детского сада. К тому времени Тед понимает, что ему нужно прилагать больше усилий, если он действительно надеется найти свою настоящую любовь. Помогает ему в этих поисках его друг Барни, убежденный холостяк, вечно со своим, иногда чересчур, мнением на все происходящее, со склонностью к костюмам и верным способом познакомиться с девушками. Когда Тед встречает Робин, он решает, что это любовь с первого взгляда, но у судьбы в запасе есть кое-что еще.Релизер : Автор Раздачи - АКТЕР aka CEBEPu2D
    Работа со звуком : Nez
    Озвучка : Кураж-Бамбей

    Формат: MKV
    Видео кодек: H.264
    Аудио кодек: AC3
    Видео: 1912x1072, 23.976 fps, ~5000 kbps, ~0.102 bit/pixel
    Аудио Rus: 48 kHz, 6 ch, 384 kbps |Кураж-Бамбей| / 14 серия 48 kHz, 2 ch, 192 kbps |Кураж-Бамбей|
    Аудио Eng: 48 kHz, 6 ch, 384 kbps |Original|
    Субтитры: Русские (Notabenoid), английские

    Список серий

    01. The Locket / Медальон
    02. Coming Back / Возвращение
    03. Last Time in New York / Прошлый раз в Нью Йорке
    04. The Broken Code / Поврежденный код
    05. The Poker Game / Игра в покер
    06. Knight Vision / Видение рыцаря
    07. No Questions Asked / Без лишних вопросов
    08. The Lighthouse / Маяк
    09. Platonish / Платонические чувства
    10. Mom and Dad / Мама и Папа
    11. Bedtime Stories / Сказки на ночь
    12. The Rehearsal Dinner / Репетиция Ужина
    13. Bass Player Wanted / Требуются Басист
    14. Slapsgiving 3: Slappointment in Slapmarra / Пощечина 3

    Знаете ли вы, что...

    • В квартире Маршала и Теда, как и в известном фильме Криминальное чтиво, часы всегда показывают 4:20.
    • Братский кодекс (англ. The Bro Code), про который так часто упоминает Барни на протяжении всего сериала, был выпущен издательством Simon Schuster в 2008 году.
    • Вступительную песню под названием Hey Beautiful исполняет группа The Solids, основателями которой являются создатели сериала Томас Крейг и Картер Бейз.
    • В одной из серий к Барни приезжает его брат, Джеймс, который является геем. В реальной жизни исполнитель роли Барни, Нил Патрик Харрис — представитель секс-меньшинств.
    • Прообразом бара MacLaren`s — любимого бара главных героев, является реально существующий в Нью-Йорке бар McGee`s. В сериале бар назван так в честь помощника Картера Бейза — Карла МакЛарена, бармена в сериале также зовут Карл.

    MediaInfo

    Полное имя : E:How.I.Met.Your.Mother.S09E01.The.Locket.1080p.WEB-DL.by.AKTEP.mkv
    Формат : Matroska
    Версия формата : Version 4 / Version 2
    Размер файла : 908 Мбайт
    Продолжительность : 21 м.
    Общий поток : 5877 Кбит/сек
    Дата кодирования : UTC 2013-11-02 19:55:39
    Программа кодирования : mkvmerge v6.2.0 (;Promised Land;) built on Apr 28 2013 12:22:01
    Библиотека кодирования : libebml v1.3.0 libmatroska v1.4.0

    Видео
    Идентификатор : 1
    Формат : AVC
    Формат/Информация : Advanced Video Codec
    Профиль формата : High@L4.0
    Параметр CABAC формата : Да
    Параметр ReFrames формата : 4 кадра
    Идентификатор кодека : V_MPEG4/ISO/AVC
    Продолжительность : 21 м.
    Битрейт : 4992 Кбит/сек
    Ширина : 1912 пикселей
    Высота : 1072 пикселя
    Соотношение сторон : 16:9
    Режим частоты кадров : Постоянный
    Частота кадров : 23,976 кадра/сек
    Цветовое пространство : YUV
    Субдискретизация насыщенности : 4:2:0
    Битовая глубина : 8 бит
    Тип развёртки : Прогрессивная
    Бит/(Пиксели*Кадры) : 0.102
    Размер потока : 771 Мбайт (85%)
    Заголовок : by AKTEP
    Язык : English
    Default : Да
    Forced : Нет
    Основные цвета : BT.709
    Характеристики трансфера : BT.709
    Коэффициенты матрицы : BT.709

    Аудио #1
    Идентификатор : 2
    Формат : AC-3
    Формат/Информация : Audio Coding 3
    Расширение режима : CM (complete main)
    Параметр Endianness формата : Big
    Идентификатор кодека : A_AC3
    Продолжительность : 21 м.
    Вид битрейта : Постоянный
    Битрейт : 384 Кбит/сек
    Каналы : 6 каналов
    Расположение каналов : Front: L C R, Side: L R, LFE
    Частота : 48,0 КГц
    Битовая глубина : 16 бит
    Метод сжатия : С потерями
    Размер потока : 59,3 Мбайт (7%)
    Язык : Russian
    Default : Да
    Forced : Нет

    Аудио #2
    Идентификатор : 3
    Формат : AC-3
    Формат/Информация : Audio Coding 3
    Расширение режима : CM (complete main)
    Параметр Endianness формата : Big
    Идентификатор кодека : A_AC3
    Продолжительность : 21 м.
    Вид битрейта : Постоянный
    Битрейт : 384 Кбит/сек
    Каналы : 6 каналов
    Расположение каналов : Front: L C R, Side: L R, LFE
    Частота : 48,0 КГц
    Битовая глубина : 16 бит
    Метод сжатия : С потерями
    Размер потока : 59,3 Мбайт (7%)
    Язык : English
    Default : Нет
    Forced : Нет

    Текст #1
    Идентификатор : 4
    Формат : UTF-8
    Идентификатор кодека : S_TEXT/UTF8
    Идентификатор кодека/Информация : UTF-8 Plain Text
    Язык : Russian
    Default : Нет
    Forced : Нет

    Текст #2
    Идентификатор : 5
    Формат : UTF-8
    Идентификатор кодека : S_TEXT/UTF8
    Идентификатор кодека/Информация : UTF-8 Plain Text
    Язык : English
    Default : Нет
    Forced : Нет

    Скриншоты для ознакомления




    Внимание! Раздача ведётся путём добавления новых серий.

    Внимание! Раздача ведётся путём добавления новых серий; при каждом добавлении создётся новый торрент. Чтобы начать докачку новой серии, пользователям необходимо сделать следующее:

    Остановить скачивание.
    Удалить старый торрент у себя из клиента (старые серии удалять не надо).
    Скачать новый торрент и запустить его у себя в клиенте вместо старого, при этом указать клиенту путь в старую папку куда и должно происходить скачивание новых серий.

    Ваш клиент при этом должен произвести хеширование (проверку) старой папки (если не производит сам - помогите ему сделать это), и будет докачивать только те серии которых у вас ещё нет. Старые серии при этом не удаляются, а продолжают раздаваться!
    Eсли вы уже удалили старые серии, то предотвратить повторную закачку старых серий можно, отжав галочку в соответсвующих местах при запуске нового торрента. По возможности, желательно не удалять старые серии как можно дольше чтобы релизёр не столько продолжал раздавать старые серии, а смог сконцентрироваться на новых.


    Размер скачиваемого торрента: 12.24 GB (13139494626 Bytes)

    Как Я Встретил Вашу Маму / How I Met Your Mother (2013) WEB-DL 1080p | Кураж-Бамбей торрент скачать бесплатно
    загрузка...
    Рейтинг →
     (голосов: 1, оценка 3/5, голосовать можно 1 раз )

    Другие торренты по теме:

  • Как я теперь люблю / Как я теперь живу / How I Live Now (2013) WEB-DLRip-AVC | L1 скачать через торрент бесплатно
  • Как я теперь люблю / Как я теперь живу / How I Live Now (2013) BDRip-AVC от potroks | А.Матвеев скачать через торрент бесплатно
  • Как я теперь люблю / Как я теперь живу / How I Live Now (2013) BDRip-AVC от R.G.TorrBy | А. Матвеев
  • Как я теперь люблю / Как я теперь живу / How I Live Now (2013) BDRip 720p от Leonardo and Scarabey | А.Матвеев
  • Как я теперь люблю / Как я теперь живу / How I Live Now (2013) BDRip-AVC от Leonardo and Scarabey | А.Матвеев
  • Как я теперь живу / Как я теперь люблю / How I Live Now (2013) BDRip 720p от CINEMANIA | А.Матвеев скачать через торрент бесплатно
  • Как я теперь живу / Как я теперь люблю / How I Live Now (2013) BDRip 1080p от CINEMANIA | А.Матвеев скачать через торрент бесплатно
  • Как я теперь живу / Как я теперь люблю / How I Live Now (2013) HDRip от Scarabey | А.Матвеев скачать через торрент бесплатно


    • Комментарии (0):

      Информация

      Информация

        Посетители, находящиеся в группе Гости, не могут оставлять комментарии в данной новости.

        ↓ Меню



        ↓ Опрос

        А Вы добавили сайт в закладки?
        Да
        Не


        Top 10 за месяц (Фильмы)