.
Авторизация | Регистрация
» » Голодные игры: И вспыхнет пламя / The Hunger Games: Catching Fire (2013) BDRip 1080p | IMAX | Звук с TS скачать через торрент бесплатно




    Голодные игры: И вспыхнет пламя / The Hunger Games: Catching Fire (2013) BDRip 1080p | IMAX | Звук с TS скачать через торрент бесплатно

    Опубликовал: Админ | Дата: 27-02-2015, 11:10 | Просмотров: 236



    Детально о кино
    Русское название: Голодные игры: И вспыхнет пламя
    Русское название в мировом прокате: The Hunger Games: Catching Fire
    Создали в: 2013
    Категория жанра: фантастика, боевик, триллер, приключения
    Главный режиссер: Френсис Лоуренс
    Актеры: Дженнифер Лоуренс, Джош Хатчерсон, Сэм Клафлин, Джена Мэлоун, Вуди Харрельсон, Элизабет Бэнкс, Лиам Хемсворт, Дональд Сазерленд, Филип Сеймур Хоффман, Стэнли Туччи

    Сюжет фильма: Сумев выжить на безжалостных Голодных играх, Китнисс Эвердин и Пит Мелларк возвращаются домой. Но теперь они в еще большей опасности, так как своим отказом играть по правилам на Арене бросили вызов Капитолию. По традиции следующие, юбилейные, Голодные игры должны стать особенными, и в этот раз в них участвуют только победители прошлых лет. Китнисс и Пит вынуждены вновь выйти на Арену, где будут соперничать с сильнейшими. Правила игры меняются. Арена еще опасней, масштаб еще больше, ставки еще выше!

    Официальный сайт

    Снималось в: США
    Киностудия: Color Force
    Время просмотра: 02:26:14
    Перевод текста: Профессиональный (полное дублирование) звук с TS

    Файл
    Кодек для видео: x264
    Качество фильма: BDRip 1080p PublicHD - IMAX EDITION
    Информация о видео: MPEG-4 AVC, 8802 Кбит/с, 1920x1080, 23.976 кадр/с
    Информация о звуке: Русский (MP3, 2 ch, 320 Кбит/с), английский (AC3, 6 ch, 640 Кбит/с)
    Субтитры: Английские

    Семпл

    Скриншоты для ознакомления




    Скрытый текст
    Общее
    Уникальный идентификатор : 230116863035464749844849399514926839615 (0xAD1EE54E17A8E737BDC69931476A773F)
    Полное имя : K:DownloadsBLU-RAY DISCGolodnye.igry-I.vspyhnet.plamja.2013.x264.BDRip(1080p).mkv
    Формат : Matroska
    Версия формата : Version 4 / Version 2
    Размер файла : 10,2 Гбайт
    Продолжительность : 2 ч. 26 м.
    Общий поток : 9960 Кбит/сек
    Дата кодирования : UTC 2010-02-22 21:41:31
    Программа кодирования : mkvmerge v5.9.0 (;On The Loose;) built on Dec 9 2012 15:37:01
    Библиотека кодирования : libebml v1.3.0 libmatroska v1.4.0

    Видео
    Идентификатор : 1
    Формат : AVC
    Формат/Информация : Advanced Video Codec
    Профиль формата : High@L4.1
    Параметр CABAC формата : Да
    Параметр ReFrames формата : 4 кадра
    Идентификатор кодека : V_MPEG4/ISO/AVC
    Продолжительность : 2 ч. 26 м.
    Битрейт : 8802 Кбит/сек
    Ширина : 1920 пикселей
    Высота : 1080 пикселей
    Соотношение сторон : 16:9
    Режим частоты кадров : Постоянный
    Частота кадров : 23,976 кадра/сек
    Цветовое пространство : YUV
    Субдискретизация насыщенности : 4:2:0
    Битовая глубина : 8 бит
    Тип развёртки : Прогрессивная
    Бит/(Пиксели*Кадры) : 0.177
    Размер потока : 8,99 Гбайт (88%)
    Язык : English
    Default : Да
    Forced : Да

    Аудио #1
    Идентификатор : 2
    Формат : MPEG Audio
    Версия формата : Version 1
    Профиль формата : Layer 3
    Режим : Joint stereo
    Идентификатор кодека : A_MPEG/L3
    Идентификатор кодека/Подсказка : MP3
    Продолжительность : 2 ч. 26 м.
    Вид битрейта : Постоянный
    Битрейт : 320 Кбит/сек
    Каналы : 2 канала
    Частота : 48,0 КГц
    Метод сжатия : С потерями
    Размер потока : 335 Мбайт (3%)
    Язык : Russian
    Default : Да
    Forced : Да

    Аудио #2
    Идентификатор : 3
    Формат : AC-3
    Формат/Информация : Audio Coding 3
    Расширение режима : CM (complete main)
    Параметр Endianness формата : Big
    Идентификатор кодека : A_AC3
    Продолжительность : 2 ч. 26 м.
    Вид битрейта : Постоянный
    Битрейт : 640 Кбит/сек
    Каналы : 6 каналов
    Расположение каналов : Front: L C R, Side: L R, LFE
    Частота : 48,0 КГц
    Битовая глубина : 16 бит
    Метод сжатия : С потерями
    Размер потока : 669 Мбайт (6%)
    Язык : English
    Default : Нет
    Forced : Нет

    Текст #1
    Идентификатор : 4
    Формат : UTF-8
    Идентификатор кодека : S_TEXT/UTF8
    Идентификатор кодека/Информация : UTF-8 Plain Text
    Язык : English
    Default : Нет
    Forced : Нет

    Текст #2
    Идентификатор : 5
    Формат : UTF-8
    Идентификатор кодека : S_TEXT/UTF8
    Идентификатор кодека/Информация : UTF-8 Plain Text
    Язык : English
    Default : Нет
    Forced : Нет

    Меню
    00:00:00.000 : en:00:00:00.000
    00:11:24.684 : en:00:11:24.684
    00:16:48.049 : en:00:16:48.049
    00:25:38.078 : en:00:25:38.078
    00:35:51.649 : en:00:35:51.649
    00:44:22.576 : en:00:44:22.576
    00:52:12.921 : en:00:52:12.921
    01:01:11.376 : en:01:01:11.376
    01:08:12.213 : en:01:08:12.213
    01:16:48.938 : en:01:16:48.938
    01:22:39.663 : en:01:22:39.663
    01:29:21.731 : en:01:29:21.731
    01:40:43.913 : en:01:40:43.913
    01:50:47.766 : en:01:50:47.766
    02:02:46.984 : en:02:02:46.984
    02:09:58.958 : en:02:09:58.958

    Размер скачиваемого торрента: 10.17 GB (10924991355 Bytes)

    Голодные игры: И вспыхнет пламя / The Hunger Games: Catching Fire (2013) BDRip 1080p | IMAX | Звук с TS скачать через торрент бесплатно
    загрузка...
    Рейтинг →
     (голосов: 1, оценка 5/5, голосовать можно 1 раз )

    Другие торренты по теме:

  • Голодные игры / The Hunger Games (2012) HDRip торрент скачать бесплатно
  • Сьюзен Коллинз / Suzanne Collins - Голодные игры (2010-2011) fb2 торрент скачать бесплатно
  • Голодные игры: И вспыхнет пламя / The Hunger Games: Catching Fire (2013) HD 1080p | Трейлер-тизер торрент скачать бесплатно
  • Голодные игры (2013) SATRip торрент скачать бесплатно
  • OST - Голодные игры / The Hunger Games (2012) MP3 скачать через торрент бесплатно
  • Пусть говорят - Голодные игры (2013) HDTVRip от MediaClub скачать через торрент бесплатно
  • OST - Голодные игры: И вспыхнет пламя / Hunger Games: Catching Fire (2013) MP3 торрент скачать бесплатно
  • Голодные игры: И вспыхнет пламя / The Hunger Games: Catching Fire (2013) DCPrip | Трейлер торрент скачать бесплатно


    • Комментарии (0):

      Информация

      Информация

        Посетители, находящиеся в группе Гости, не могут оставлять комментарии в данной новости.

        ↓ Меню



        ↓ Опрос

        А Вы добавили сайт в закладки?
        Да
        Не


        Top 10 за неделю (Фильмы)