.
Авторизация | Регистрация
» » Одинокий рейнджер / The Lone Ranger (2013) BDRip 720p | D, A скачать через торрент бесплатно




    Одинокий рейнджер / The Lone Ranger (2013) BDRip 720p | D, A скачать через торрент бесплатно

    Опубликовал: Админ | Дата: 27-02-2015, 11:10 | Просмотров: 282



    Одинокий рейнджер / The Lone Ranger

    Снималось в: США
    Создали в: 2013
    Категория жанра: вестерн, приключения, боевик, комедия
    Время просмотра: 02:29:33
    Перевод текста: Дублированный, Авторский (одноголосый, закадровый)
    Субтитры: Русские, английские

    Главный режиссер: Гор Вербински / Gore Verbinski

    Актеры: Джонни Депп, Арми Хаммер, Том Уилкинсон, Уильям Фихтнер, Барри Пеппер, Джеймс Бэдж Дэйл, Хелена Бонем Картер, Рут Уилсон, Брайант Принц, Мэйсон Кук

    Сюжет фильма: История блюстителя закона Джона Рида, который с помощью индейца Тонто стал легендарным мстителем в маске, стоящим на защите справедливости. Тонто с юмором и небылицами повествует о тех приключениях, которые пришлось пережить двум непохожим друг на друга героям, сведенным судьбой для того, чтобы вместе сражаться против общего врага. Им приходится противостоять жадности и коррупции во времена, когда появление первых железных дорог изменило представление о власти и могуществе в мире.



    Файл
    Качество фильма: BDRip (720p)
    Информация о видео: MPEG-4 AVC, 7100 Кбит/с, 1280x534
    Информация о звуке:
    1. Russian AC3 5.1 48 kHz 640 kbps 24-bit - дублированный BD CEE.
    2. Russian DTS 5.1 48 kHz 1536 kbps 24-bit - закадровый (авторский одноголосый Л.Володарский);
    3. Russian DTS 5.1 48 kHz 1536 kbps 24-bit - закадровый (авторский одноголосый Ю.Сербин);
    4. English DTS 5.1 48 kHz 1536 kbps 24-bit.
    Субтитры подготовлены: Русские (Forced, Full), Английские (Forced, SDH)
    Сохранены оригинальные чаптеры как на Blu-ray.

    Доп.инфа
    Видеоряд от CtrlHD.
    Сборка рипа: Womanizer0
    За звуковую дорожку Л.Володарского, спасибо форуму HDTRACKER
    За звуковую дорожку Ю.Сербина, спасибо форуму e180
    MI
    Format : Matroska
    File size : 12.8 GiB
    Duration : 2h 29mn
    Overall bit rate : 12.3 Mbps
    Movie name : The Lone Ranger (2013) - Release for HDCLUB
    Encoded date : UTC 2013-12-27 10:19:12
    Writing application : mkvmerge v4.9.1 (;Ich will;) built on Jul 11 2011 23:53:15
    Writing library : libebml v1.2.1 libmatroska v1.1.1

    Video
    ID : 1
    Format : AVC
    Format/Info : Advanced Video Codec
    Format profile : High@L4.1
    Format settings, CABAC : Yes
    Format settings, ReFrames : 12 frames
    Codec ID : V_MPEG4/ISO/AVC
    Duration : 2h 29mn
    Bit rate : 7 110 Kbps
    Width : 1 280 pixels
    Height : 534 pixels
    Display aspect ratio : 2.35:1
    Frame rate : 23.976 fps
    Color space : YUV
    Chroma subsampling : 4:2:0
    Bit depth : 8 bits
    Scan type : Progressive
    Bits/(Pixel*Frame) : 0.434
    Stream size : 7.18 GiB (56%)
    Title : The Lone Ranger (2013)
    Writing library : x264 core 138 r2358kMod 9e941d1
    Encoding settings : cabac=1 / ref=12 / deblock=1:-3:-3 / analyse=0x3:0x113 / me=esa / subme=10 / psy=1 / fade_compensate=0.00 / psy_rd=1.05:0.00 / mixed_ref=1 / me_range=16 / chroma_me=1 / trellis=2 / 8x8dct=1 / cqm=0 / deadzone=21,11 / fast_pskip=0 / chroma_qp_offset=-2 / threads=6 / lookahead_threads=1 / sliced_threads=0 / nr=0 / decimate=0 / interlaced=0 / bluray_compat=0 / constrained_intra=0 / bframes=6 / b_pyramid=2 / b_adapt=2 / b_bias=0 / direct=3 / weightb=1 / open_gop=0 / weightp=2 / keyint=250 / keyint_min=23 / scenecut=40 / intra_refresh=0 / rc=2pass / mbtree=0 / bitrate=7110 / ratetol=1.0 / qcomp=0.70 / qpmin=0 / qpmax=69 / qpstep=4 / cplxblur=20.0 / qblur=0.5 / ip_ratio=1.20 / pb_ratio=1.10 / aq=1:1.00 / zones=0,60,q=10/1286,1350,q=10/65271,66091,q=10
    Language : English

    Audio #1
    ID : 2
    Format : AC-3
    Format/Info : Audio Coding 3
    Mode extension : CM (complete main)
    Codec ID : A_AC3
    Duration : 2h 29mn
    Bit rate mode : Constant
    Bit rate : 640 Kbps
    Channel(s) : 6 channels
    Channel positions : Front: L C R, Side: L R, LFE
    Sampling rate : 48.0 KHz
    Bit depth : 16 bits
    Compression mode : Lossy
    Stream size : 685 MiB (5%)
    Title : AC3 5.1 @ 640 kbps - DUB, Blu-ray EUR
    Language : Russian

    Audio #2
    ID : 3
    Format : DTS
    Format/Info : Digital Theater Systems
    Codec ID : A_DTS
    Duration : 2h 29mn
    Bit rate mode : Constant
    Bit rate : 1 510 Kbps
    Channel(s) : 6 channels
    Channel positions : Front: L C R, Side: L R, LFE
    Sampling rate : 48.0 KHz
    Bit depth : 24 bits
    Compression mode : Lossy
    Stream size : 1.58 GiB (12%)
    Title : DTS @ 1510 Kbps |Ю.Сербин|
    Language : Russian

    Audio #3
    ID : 4
    Format : DTS
    Format/Info : Digital Theater Systems
    Codec ID : A_DTS
    Duration : 2h 29mn
    Bit rate mode : Constant
    Bit rate : 1 510 Kbps
    Channel(s) : 6 channels
    Channel positions : Front: L C R, Side: L R, LFE
    Sampling rate : 48.0 KHz
    Bit depth : 24 bits
    Compression mode : Lossy
    Stream size : 1.58 GiB (12%)
    Title : DTS @ 1510 Kbps |Л.Володарский|
    Language : Russian

    Audio #4
    ID : 5
    Format : DTS
    Format/Info : Digital Theater Systems
    Codec ID : A_DTS
    Duration : 2h 29mn
    Bit rate mode : Constant
    Bit rate : 1 510 Kbps
    Channel(s) : 6 channels
    Channel positions : Front: L C R, Side: L R, LFE
    Sampling rate : 48.0 KHz
    Bit depth : 24 bits
    Compression mode : Lossy
    Stream size : 1.58 GiB (12%)
    Title : DTS 5.1 @ 1536 kbps
    Language : English

    Text #1
    ID : 6
    Format : UTF-8
    Codec ID : S_TEXT/UTF8
    Codec ID/Info : UTF-8 Plain Text
    Title : Forced
    Language : Russian

    Text #2
    ID : 7
    Format : UTF-8
    Codec ID : S_TEXT/UTF8
    Codec ID/Info : UTF-8 Plain Text
    Language : Russian

    Text #3
    ID : 8
    Format : UTF-8
    Codec ID : S_TEXT/UTF8
    Codec ID/Info : UTF-8 Plain Text
    Title : Forced
    Language : English

    Text #4
    ID : 9
    Format : UTF-8
    Codec ID : S_TEXT/UTF8
    Codec ID/Info : UTF-8 Plain Text
    Title : SDH
    Language : English

    Menu
    00:00:00.000 : en:00:00:00.000
    00:08:16.121 : en:00:08:16.121
    00:13:38.776 : en:00:13:38.776
    00:24:51.407 : en:00:24:51.407
    00:29:03.033 : en:00:29:03.033
    00:32:05.841 : en:00:32:05.841
    00:40:32.013 : en:00:40:32.013
    00:45:29.644 : en:00:45:29.644
    00:53:29.665 : en:00:53:29.665
    01:01:05.662 : en:01:01:05.662
    01:10:01.614 : en:01:10:01.614
    01:16:12.318 : en:01:16:12.318
    01:24:45.455 : en:01:24:45.455
    01:28:39.731 : en:01:28:39.731
    01:35:35.188 : en:01:35:35.188
    01:41:13.985 : en:01:41:13.985
    01:46:35.806 : en:01:46:35.806
    01:50:02.179 : en:01:50:02.179
    01:53:55.203 : en:01:53:55.203
    01:56:15.260 : en:01:56:15.260
    02:01:51.095 : en:02:01:51.095
    02:12:07.211 : en:02:12:07.211
    02:17:13.934 : en:02:17:13.934
    02:20:20.287 : en:02:20:20.287
    Скриншоты для ознакомления

    Размер скачиваемого торрента: 12.83 GB (13777041596 Bytes)

    Одинокий рейнджер / The Lone Ranger (2013) BDRip 720p | D, A скачать через торрент бесплатно
    загрузка...
    Рейтинг →
     (голосов: 1, оценка 5/5, голосовать можно 1 раз )

    Другие торренты по теме:

  • Одинокий рейнджер / The Lone Ranger (2013) HD-1080p | D | Трейлер торрент скачать бесплатно
  • Одинокий рейнджер / The Lone Ranger (2013) BDRip-AVC от HELLYWOOD | Лицензия торрент скачать бесплатно
  • Одинокий рейнджер / The Lone Ranger (2013) BDRip от HQ-ViDEO | Лицензия торрент скачать бесплатно
  • Одинокий рейнджер / The Lone Ranger (2013) HDRip от Scarabey | D | Лицензия торрент скачать бесплатно
  • Одинокий рейнджер / The Lone Ranger (2013) HDRip-AVC от ViRTUS | D торрент скачать бесплатно
  • Одинокий рейнджер / The Lone Ranger (2013) BDRip-AVC | Лицензия торрент скачать бесплатно
  • Одинокий рейнджер / The Lone Ranger (2013) BDRip от Youtracker торрент скачать бесплатно
  • Одинокий рейнджер / The Lone Ranger (2013) BDRip 1080p | D | Лицензия торрент скачать бесплатно


    • Комментарии (0):

      Информация

      Информация

        Посетители, находящиеся в группе Гости, не могут оставлять комментарии в данной новости.

        ↓ Меню



        ↓ Опрос

        А Вы добавили сайт в закладки?
        Да
        Не


        Top 10 за неделю (Фильмы)