.
Авторизация | Регистрация
Хочешь лучшие торренты? Добавь свой email!
Добавить
» » Африканец / Lafricain (1983) DVDRip от New-Team торрент скачать бесплатно




    Африканец / Lafricain (1983) DVDRip от New-Team торрент скачать бесплатно

    Опубликовал: Админ | Дата: 27-02-2015, 11:10 | Просмотров: 392


    Снималось в: Франция
    Создали в: Renn Productions
    Категория жанра: комедия, приключения
    Создали в: 1983
    Время просмотра: 01:36:33

    Перевод текста: Профессиональный (дублированный)
    Оригинальная аудиодорожка: нет
    Субтитры подготовлены: нет

    Главный режиссер: Филипп Де Брока / Philippe de Broca

    Актеры:
    Катрин Денёв, Филипп Нуаре, Жан-Франсуа Балмер, Жак Франсуа, Жан Бенгиги, Жозеф Момо, Вивиан Рид, Пьер Майкл, Гордон Хит, Рэймонд Акилон...

    Роли дублировали:
    Галина Чигинская, Владимир Трошин, Геннадий Богачёв, Александр Демьяненко, Кирилл Лавров...

    Сюжет:
    Фильм снят в экзотических местах Африки, куда прилетает героиня фильма, чтобы изучить возможность строительства отеля для туристов. Там она встречает своего мужа, летчика, охраняющего заповедник от браконьеров.
    Они расстались несколько лет назад, но так и не смогли забыть друг друга. Он делает все возможное, чтобы воспрепятствовать уничтожению этого нетронутого уголка природы. Нешуточное столкновение интересов, забавные приключения и настоящая опасность возрождают старую любовь с новой силой...



    Исходник: DVD5 R5
    Тип релиза: DVDRip
    Контейнер: AVI

    Информация о видео: 704x304 (2,35:1), 23,976 fps, XviD ~ 942 kbps avg, 0.184 bit/pixel
    Информация о звуке: 48 kHz, MP3 2.0, 128 kbps

    Раздача от:
    MediaInfo

    Общее
    Полное имя : Afrikanec.1983.DVDRip-745_New-team_by_AVP_Studio.avi
    Формат : AVI
    Формат/Информация : Audio Video Interleave
    Размер файла : 745 Мбайт
    Продолжительность : 1 ч. 36 м.
    Общий поток : 1079 Кбит/сек
    Программа кодирования : VirtualDubModRus 1.5.10.2 (build 2542/release)
    Библиотека кодирования : VirtualDubMod build 2542/release

    Видео
    Идентификатор : 0
    Формат : MPEG-4 Visual
    Профиль формата : Advanced Simple@L5
    Параметр BVOP формата : 1
    Параметр QPel формата : Нет
    Параметр GMC формата : Без точки перехода
    Параметр матрицы формата : Выборочная
    Идентификатор кодека : XVID
    Идентификатор кодека/Подсказка : XviD
    Продолжительность : 1 ч. 36 м.
    Битрейт : 942 Кбит/сек
    Ширина : 704 пикселя
    Высота : 304 пикселя
    Соотношение сторон : 2,35:1
    Частота кадров : 23,976 кадра/сек
    Цветовое пространство : YUV
    Субдискретизация насыщенности : 4:2:0
    Битовая глубина : 8 бит
    Тип развёртки : Прогрессивная
    Метод сжатия : С потерями
    Бит/(Пиксели*Кадры) : 0.184
    Размер потока : 651 Мбайт (87%)
    Библиотека кодирования : XviD 73

    Аудио
    Идентификатор : 1
    Формат : MPEG Audio
    Версия формата : Version 1
    Профиль формата : Layer 3
    Идентификатор кодека : 55
    Идентификатор кодека/Подсказка : MP3
    Продолжительность : 1 ч. 36 м.
    Вид битрейта : Постоянный
    Битрейт : 128 Кбит/сек
    Каналы : 2 канала
    Частота : 48,0 КГц
    Метод сжатия : С потерями
    Размер потока : 88,3 Мбайт (12%)
    Выравнивание : Соединение по промежуткам
    Продолжительность промежутка : 42 мс. (1,00 видеокадр)
    Время предзагрузки промежутка : 504 мс.
    Библиотека кодирования : LAME3.99r
    Залил: AVPStudio
    Размер скачиваемого торрента: 745.45 MB (781662208 Bytes)


    Африканец / Lafricain (1983) DVDRip от New-Team торрент скачать бесплатно
    загрузка...
    Рейтинг →
     (голосов: 1, оценка 5/5, голосовать можно 1 раз )

    Другие торренты по теме:

  • Африканец / Lafricain (1983) DVDRip-AVC от New-Team скачать через торрент бесплатно
  • Африканец / LAfricain (1983) BDRip 720p от MediaClub | D, P скачать через торрент бесплатно
  • Африканец / LAfricain (1983) BDRip 1080p | D, P скачать через торрент бесплатно
  • Африканец / Lafricain скачать через торрент бесплатно


    • Комментарии (0):

      Информация

      Информация

        Посетители, находящиеся в группе Гости, не могут оставлять комментарии в данной новости.

        ↓ Меню



        ↓ Опрос

        А Вы добавили сайт в закладки?
        Да
        Не


        Top 10 за месяц (Фильмы)