.
Авторизация | Регистрация
» » Великолепная Анжелика / Merveilleuse Anglique (1965) BDRip by msltel | D, P торрент скачать бесплатно




    Великолепная Анжелика / Merveilleuse Anglique (1965) BDRip by msltel | D, P торрент скачать бесплатно

    Опубликовал: Админ | Дата: 27-02-2015, 11:10 | Просмотров: 448



    Русское название: Великолепная Анжелика
    Русское название в мировом прокате: Merveilleuse Ang?lique
    Создали в: 1965
    Категория жанра: Мелодрама, приключения
    Снималось в: Франция, Италия, Германия (ФРГ), CICC, Films Borderie, Fono Roma, Francos Films, Gloria-Film GmbH, Soci?t? Nouvelle Prodis
    Главный режиссер: Бернар Бордери
    Актеры: Мишель Мерсье, Клод Жиро, Жан Рошфор, Жан-Луи Трентиньян, Джулиано Джемма, Клер Морье, Эрнст Шрёдер, Шарль Ренье, Жак Тожа, Франсуа Мэстр

    Сюжет фильма: После того как её мужа сжигают на костре, Анжелика находит убежище у разбойников, глава которых друг её детства Николя. Во время нападения другой банды, Николя вынужден пожертвовать собой, чтобы позволить Анжелике бежать. Судьба вновь благосклонна к ней — Анжелике удаётся выйти замуж за маркиза де Плесси-Бельера. Она решает проникнуть в Версаль и отомстить королю — убийце мужа… Экранизация многотомного романа Анн и Сержа Голон Анжелика.

    Качество фильма: BDRip
    Размер скачиваемого торрента: 2.8 ГБ
    Время просмотра: 01:44:44

    Информация о видео: XviD, 1899 Kбит/с, 720x304
    Информация о звуке 1: русский, 48 kHz, AC3, 2 ch, 384 kbps avg, Дублированный, с добавлением многоголоски HTB
    Информация о звуке 2: русский, 48 kHz, AC3, 2 ch, 384 kbps avg, Профессиональный многоголосый, НТВ

    Внешние файлы
    Информация о звуке: русский, 48 kHz, AC3, 2 ch, 384 kbps avg, Профессиональный многоголосый, RUSCICO
    Информация о звуке: украинский, 48 kHz, AC3, 2 ch, 384 kbps avg, Профессиональный многоголосый, 1 1
    Информация о звуке: французский, 48 kHz, AC3, 2 ch, 384 kbps avg, Оригинал
    Субтитры: русские

    Исходник: andarmo (Кинозал)

    Сравнение с исходником



    MediaInfo
    Общее
    Полное имя : E:VideoAngelika.2.1965.XviD.BDRipAngelika.2.1965.MVO.rus.RUSCICO.ac3
    Формат : AC-3
    Формат/Информация : Audio Coding 3
    Размер файла : 288 Мбайт
    Продолжительность : 1 ч. 44 м.
    Режим общего битрейта : Постоянный
    Общий поток : 384 Кбит/сек

    Аудио
    Формат : AC-3
    Формат/Информация : Audio Coding 3
    Расширение режима : CM (complete main)
    Параметр Endianness формата : Big
    Продолжительность : 1 ч. 44 м.
    Вид битрейта : Постоянный
    Битрейт : 384 Кбит/сек
    Каналы : 2 канала
    Расположение каналов : Front: L R
    Частота : 48,0 КГц
    Битовая глубина : 16 бит
    Метод сжатия : С потерями
    Размер потока : 288 Мбайт (100%)

    Общее
    Полное имя : E:VideoAngelika.2.1965.XviD.BDRipAngelika.2.1965.MVO.ukr.1 1.ac3
    Формат : AC-3
    Формат/Информация : Audio Coding 3
    Размер файла : 288 Мбайт
    Продолжительность : 1 ч. 44 м.
    Режим общего битрейта : Постоянный
    Общий поток : 384 Кбит/сек

    Аудио
    Формат : AC-3
    Формат/Информация : Audio Coding 3
    Расширение режима : CM (complete main)
    Параметр Endianness формата : Big
    Продолжительность : 1 ч. 44 м.
    Вид битрейта : Постоянный
    Битрейт : 384 Кбит/сек
    Каналы : 2 канала
    Расположение каналов : Front: L R
    Частота : 48,0 КГц
    Битовая глубина : 16 бит
    Метод сжатия : С потерями
    Размер потока : 288 Мбайт (100%)

    Общее
    Полное имя : E:VideoAngelika.2.1965.XviD.BDRipAngelika.2.1965.Original.fre.ac3
    Формат : AC-3
    Формат/Информация : Audio Coding 3
    Размер файла : 288 Мбайт
    Продолжительность : 1 ч. 44 м.
    Режим общего битрейта : Постоянный
    Общий поток : 384 Кбит/сек

    Аудио
    Формат : AC-3
    Формат/Информация : Audio Coding 3
    Расширение режима : CM (complete main)
    Параметр Endianness формата : Big
    Продолжительность : 1 ч. 44 м.
    Вид битрейта : Постоянный
    Битрейт : 384 Кбит/сек
    Каналы : 2 канала
    Расположение каналов : Front: L R
    Частота : 48,0 КГц
    Битовая глубина : 16 бит
    Метод сжатия : С потерями
    Размер потока : 288 Мбайт (100%)

    Общее
    Полное имя : E:VideoAngelika.2.1965.XviD.BDRipAngelika.2.1965.rus.srt
    Формат : SubRip
    Размер файла : 110 Кбайт

    Текст
    Формат : SubRip
    Метод сжатия : Без потерь

    Общее
    Полное имя : E:VideoAngelika.2.1965.XviD.BDRipAngelika.2.1965.XviD.BDRip.avi
    Формат : AVI
    Формат/Информация : Audio Video Interleave
    Размер файла : 1,96 Гбайт
    Продолжительность : 1 ч. 44 м.
    Общий поток : 2681 Кбит/сек
    Программа кодирования : VirtualDubMod 1.5.10.2 (build 2540/release)
    Библиотека кодирования : VirtualDubMod build 2540/release

    Видео
    Идентификатор : 0
    Формат : MPEG-4 Visual
    Профиль формата : Advanced Simple@L5
    Параметр BVOP формата : 1
    Параметр QPel формата : Нет
    Параметр GMC формата : Без точки перехода
    Параметр матрицы формата : Default (H.263)
    Режим смешивания : Сжатый битовый поток
    Идентификатор кодека : XVID
    Идентификатор кодека/Подсказка : XviD
    Продолжительность : 1 ч. 44 м.
    Битрейт : 1899 Кбит/сек
    Ширина : 720 пикселей
    Высота : 304 пикселя
    Соотношение сторон : 2,35:1
    Частота кадров : 24,000 кадра/сек
    Цветовое пространство : YUV
    Субдискретизация насыщенности : 4:2:0
    Битовая глубина : 8 бит
    Тип развёртки : Прогрессивная
    Метод сжатия : С потерями
    Бит/(Пиксели*Кадры) : 0.362
    Размер потока : 1,39 Гбайт (71%)
    Библиотека кодирования : XviD 1.2.1 (UTC 2008-12-04)

    Аудио #1
    Идентификатор : 1
    Формат : AC-3
    Формат/Информация : Audio Coding 3
    Расширение режима : CM (complete main)
    Параметр Endianness формата : Big
    Идентификатор кодека : 2000
    Продолжительность : 1 ч. 44 м.
    Вид битрейта : Постоянный
    Битрейт : 384 Кбит/сек
    Каналы : 2 канала
    Расположение каналов : Front: L R
    Частота : 48,0 КГц
    Битовая глубина : 16 бит
    Метод сжатия : С потерями
    Размер потока : 288 Мбайт (14%)
    Выравнивание : Разделение по промежуткам
    Продолжительность промежутка : 42 мс. (1,00 видеокадр)
    Время предзагрузки промежутка : 500 мс.

    Аудио #2
    Идентификатор : 2
    Формат : AC-3
    Формат/Информация : Audio Coding 3
    Расширение режима : CM (complete main)
    Параметр Endianness формата : Big
    Идентификатор кодека : 2000
    Продолжительность : 1 ч. 44 м.
    Вид битрейта : Постоянный
    Битрейт : 384 Кбит/сек
    Каналы : 2 канала
    Расположение каналов : Front: L R
    Частота : 48,0 КГц
    Битовая глубина : 16 бит
    Метод сжатия : С потерями
    Размер потока : 288 Мбайт (14%)
    Выравнивание : Разделение по промежуткам
    Продолжительность промежутка : 42 мс. (1,00 видеокадр)
    Время предзагрузки промежутка : 500 мс.
    Скриншоты для ознакомления



    Залил: msltel
    Размер скачиваемого торрента: 2.80 GB (3011342241 Bytes)

    Великолепная Анжелика / Merveilleuse Anglique (1965) BDRip by msltel | D, P торрент скачать бесплатно
    загрузка...
    Рейтинг →
     (голосов: 1, оценка 5/5, голосовать можно 1 раз )

    Другие торренты по теме:

  • Великолепная Анжелика / Merveilleuse Angelique (1965) HDTV 1080i от ClubTorrent | D скачать через торрент бесплатно
  • Великолепная Анжелика / Merveilleuse Angelique (1965) HDTVRip от Leon-masl торрент скачать бесплатно
  • Великолепная Анжелика / Merveilleuse Anglique (1965) BDRip 720p by msltel | D, P скачать через торрент бесплатно
  • Великолепная Анжелика / Merveilleuse Anglique (1965) BDRip 1080p by msltel | D, P скачать через торрент бесплатно
  • Великолепная Анжелика / Merveilleuse Angelique (1965) BDRip от HQCLUB торрент скачать бесплатно
  • Великолепная Анжелика / Merveilleuse Angelique (1965) HDRip от Scarabey | P скачать через торрент бесплатно


    • Комментарии (0):

      Информация

      Информация

        Посетители, находящиеся в группе Гости, не могут оставлять комментарии в данной новости.

        ↓ Меню



        ↓ Опрос

        А Вы добавили сайт в закладки?
        Да
        Не


        Top 10 за неделю (Фильмы)