.
Авторизация | Регистрация
» » Гарри Поттер и Узник Азкабана / Harry Potter and the Prisoner of Azkaban (2004) DVD9 скачать через торрент бесплатно




    Гарри Поттер и Узник Азкабана / Harry Potter and the Prisoner of Azkaban (2004) DVD9 скачать через торрент бесплатно

    Опубликовал: Админ | Дата: 27-02-2015, 11:10 | Просмотров: 351




    Создали в: 2004
    Создали в: Великобритания, США / 1492 Pictures, Heyday Films, P of A Productions Limited, Warner Bros. Pictures
    Категория жанра: Фэнтези, детектив, приключения, семейный
    Перевод текста: Дублированный лицензия, Профессиональный многоголосый, закадровый
    Субтитры: Вшитые отключаемые
    Язык субтитров: Английский, французский, испанский

    Главный режиссёр: Альфонсо Куарон
    Продюсеры: Майкл Барнатан, Крис Коламбус, Дэвид Хейман
    Актеры: Дэниэл Рэдклифф, Руперт Гринт, Эмма Уотсон, Том Фелтон, Гари Олдман, Дэвид Тьюлис, Майкл Гэмбон, Алан Рикман, Мэгги Смит, Робби Колтрейн

    Сюжет: В третьей части экранизации бестселлера о юном волшебнике, полюбившиеся всем герои — Гарри Поттер, Рон и Гермиона — возвращаются уже на третий курс школы чародейства и волшебства Хогвартс. На этот раз они должны раскрыть тайну узника, сбежавшего из зловещей тюрьмы Азкабан, чье пребывание на воле создает для Гарри смертельную опасность…


    Дата мировой премьеры: 31 мая 2004
    Дата российской премьеры: 3 июня 2004, Каро-Премьер

    Время просмотра: 02:21:30
    Качество фильма видео: DVD9

    Информация о видео: MPEG-2, 720x480@853x480 (NTSC 16:9), ~5494 Кбит/сек
    Информация о звуке 1: AC3 5.1, 448 Кбит/сек Английский - оригинал
    Информация о звуке 2: AC3 5.1, 448 Кбит/сек Русский - дублированный
    Информация о звуке 3: AC3 5.1, 384 Кбит/сек Русский - многоголосый, закадровый

    Дополнительно: Трейлеры

    DVDInfo:
    Title: Harry Potter and the Prisoner of Azkaban (2004) DVD9
    Size: 7.49 Gb ( 7 852 738,00 KBytes ) - DVD-9
    Enabled regions: 1, 2, 3, 4, 5, 6, 7, 8

    VTS_01 :
    Play Length: 02:21:30 00:00:12 00:00:12 00:00:07 00:00:21
    Video: NTSC 16:9 (720x480) VBR, Auto Letterboxed
    Audio:
    English (Dolby AC3, 6 ch)
    Russian (Dolby AC3, 6 ch)
    Russian (Dolby AC3, 6 ch)
    Subtitles:
    English
    Francais
    Espanol

    VTS_02 :
    Play Length: 00:02:23 00:02:12 00:01:50
    Video: NTSC 16:9 (720x480) VBR, Auto Letterboxed
    Audio:
    English (Dolby AC3, 2 ch)

    VTS_03 :
    Play Length: 00:04:59
    Video: NTSC 4:3 (720x480) VBR
    Audio:
    English (Dolby AC3, 2 ch)

    * Menus Information *

    VIDEO_TS Menu
    Video:
    NTSC 4:3 (720x480) VBR
    Auto PanScan, Auto Letterboxed
    English Language Unit :
    Title Menu

    VTS_01 Menu
    Video:
    NTSC 16:9 (720x480) VBR
    Auto PanScan
    Audio:
    Not specified (Dolby AC3, 2 ch)
    English Language Unit :
    Root Menu
    Language Unit :


    VTS_02 Menu
    Video:
    NTSC 4:3 (720x480) VBR
    Auto PanScan, Auto Letterboxed
    English Language Unit :
    Root Menu

    VTS_03 Menu
    Video:
    NTSC 4:3 (720x480) VBR
    Auto PanScan, Auto Letterboxed
    English Language Unit :
    Root Menu
    MediaInfo:
    Общее
    Полное имя : D:ВИДЕОHarry Potter and the Prisoner of Azkaban (2004) DVD9VIDEO_TSVTS_01_1.VOB
    Формат : MPEG-PS
    Размер файла : 1024 Мбайт
    Продолжительность : 20 м.
    Общий поток : 6912 Кбит/сек

    Видео
    Идентификатор : 224 (0xE0)
    Формат : MPEG Video
    Версия формата : Version 2
    Профиль формата : Main@Main
    Параметр BVOP формата : Да
    Параметр матрицы формата : Выборочная
    Параметр GOP формата : Variable
    Продолжительность : 20 м.
    Битрейт : 5494 Кбит/сек
    Ширина : 720 пикселей
    Высота : 480 пикселей
    Соотношение сторон : 16:9
    Частота кадров : 29,970 кадров/сек
    Стандарт вещания : NTSC
    Цветовое пространство : YUV
    Субдискретизация насыщенности : 4:2:0
    Битовая глубина : 8 бит
    Тип развёртки : Прогрессивная
    Порядок развёртки : Верхнее поле первое
    Метод сжатия : С потерями
    Бит/(Пиксели*Кадры) : 0.530
    Размер потока : 814 Мбайт (79%)

    Аудио #1
    Идентификатор : 189 (0xBD)-128 (0x80)
    Формат : AC-3
    Формат/Информация : Audio Coding 3
    Расширение режима : CM (complete main)
    Параметр Endianness формата : Big
    Режим смешивания : DVD-Video
    Продолжительность : 20 м.
    Вид битрейта : Постоянный
    Битрейт : 448 Кбит/сек
    Каналы : 6 каналов
    Расположение каналов : Front: L C R, Side: L R, LFE
    Частота : 48,0 КГц
    Битовая глубина : 16 бит
    Метод сжатия : С потерями
    Задержка видео : -66 мс.
    Размер потока : 66,4 Мбайт (6%)

    Аудио #2
    Идентификатор : 189 (0xBD)-129 (0x81)
    Формат : AC-3
    Формат/Информация : Audio Coding 3
    Расширение режима : CM (complete main)
    Параметр Endianness формата : Big
    Режим смешивания : DVD-Video
    Продолжительность : 20 м.
    Вид битрейта : Постоянный
    Битрейт : 448 Кбит/сек
    Каналы : 6 каналов
    Расположение каналов : Front: L C R, Side: L R, LFE
    Частота : 48,0 КГц
    Битовая глубина : 16 бит
    Метод сжатия : С потерями
    Задержка видео : -66 мс.
    Размер потока : 66,4 Мбайт (6%)

    Аудио #3
    Идентификатор : 189 (0xBD)-130 (0x82)
    Формат : AC-3
    Формат/Информация : Audio Coding 3
    Расширение режима : CM (complete main)
    Параметр Endianness формата : Big
    Режим смешивания : DVD-Video
    Продолжительность : 20 м.
    Вид битрейта : Постоянный
    Битрейт : 384 Кбит/сек
    Каналы : 6 каналов
    Расположение каналов : Front: L C R, Side: L R, LFE
    Частота : 48,0 КГц
    Битовая глубина : 16 бит
    Метод сжатия : С потерями
    Задержка видео : -66 мс.
    Размер потока : 56,9 Мбайт (6%)

    Текст #1
    Идентификатор : 224 (0xE0)-CC3
    Формат : EIA-608
    Режим смешивания, доп. информация : Muxed in Video #1
    Вид битрейта : Постоянный
    Размер потока : 0,00 байт (0%)

    Текст #2
    Идентификатор : 189 (0xBD)-32 (0x20)
    Формат : RLE
    Формат/Информация : Run-length encoding
    Режим смешивания : DVD-Video

    Текст #3
    Идентификатор : 189 (0xBD)-33 (0x21)
    Формат : RLE
    Формат/Информация : Run-length encoding
    Режим смешивания : DVD-Video

    Текст #4
    Идентификатор : 189 (0xBD)-34 (0x22)
    Формат : RLE
    Формат/Информация : Run-length encoding
    Режим смешивания : DVD-Video

    Текст #5
    Идентификатор : 189 (0xBD)-35 (0x23)
    Формат : RLE
    Формат/Информация : Run-length encoding
    Режим смешивания : DVD-Video

    Текст #6
    Идентификатор : 189 (0xBD)-36 (0x24)
    Формат : RLE
    Формат/Информация : Run-length encoding
    Режим смешивания : DVD-Video

    Текст #7
    Идентификатор : 189 (0xBD)-37 (0x25)
    Формат : RLE
    Формат/Информация : Run-length encoding
    Режим смешивания : DVD-Video

    Меню

    Скриншоты для ознакомления меню:

    Скриншоты для ознакомления:

    Залил: Саша 1992
    Размер скачиваемого торрента: 7.49 GB (8041203712 Bytes)

    Гарри Поттер и Узник Азкабана / Harry Potter and the Prisoner of Azkaban (2004) DVD9 скачать через торрент бесплатно
    загрузка...
    Рейтинг →
     (голосов: 1, оценка 3/5, голосовать можно 1 раз )

    Другие торренты по теме:

  • Гарри Поттер: Антология / Harry Potter: Antology (2001-2011) BDRip 720p от R.G. GoldenShara торрент скачать бесплатно
  • Гарри Поттер и Белое Золото II / Harry Potter and the Deathly Hallows: Part 2 (2011 / 2012) BDRip торрент скачать бесплатно
  • Роулинг Джоан Кэтлин - Гарри Поттер. Книги 1-7 (2006-2011) MP3 торрент скачать бесплатно
  • Роулинг Джоан Кэтлин - Гарри Поттер. Книги 1-6 (2012) MP3 торрент скачать бесплатно
  • Гарри Поттер и Принц-полукровка / Harry Potter and the Half-Blood Prince (2009) HDRip от Scarabey | D торрент скачать бесплатно
  • Гарри Поттер и орден Феникса / Harry Potter and the Order of the Phoenix (2007) HDRip от Scarabey | D торрент скачать бесплатно
  • Гарри Поттер и кубок огня / Harry Potter and the Goblet of Fire (2005) HDRip от Scarabey | D торрент скачать бесплатно
  • Гарри Поттер и узник Азкабана / Harry Potter and the Prisoner of Azkaban (2004) HDRip от Scarabey | D торрент скачать бесплатно


    • Комментарии (0):

      Информация

      Информация

        Посетители, находящиеся в группе Гости, не могут оставлять комментарии в данной новости.

        ↓ Меню



        ↓ Опрос

        А Вы добавили сайт в закладки?
        Да
        Не


        Top 10 за неделю (Фильмы)