.
Авторизация | Регистрация
Хочешь лучшие торренты? Добавь свой email!
Добавить
» » Кобра / Cobra (1986) BDRip-AVC | Р, L2 скачать через торрент бесплатно




    Кобра / Cobra (1986) BDRip-AVC | Р, L2 скачать через торрент бесплатно

    Опубликовал: Админ | Дата: 27-02-2015, 11:10 | Просмотров: 346


    Кобра / Cobra

    Слоган: The strong arm of the law.

    Создали в: 1986
    Мировая премьера: 23 мая 1986
    Дата выхода DVD: 16 сентября 2008, Юниверсал Пикчерс Рус
    Дата выхода Blu-Ray: 17 марта 2011, CP-Digital

    Создали в: США
    Категория жанра: боевик, триллер
    Время просмотра: 01:26:49

    Перевод текста 1: Профессиональный (многоголосый, закадровый)
    Перевод текста 2: Любительский (двухголосый, закадровый)
    Оригинальный аудиопоток: английский
    Субтитры: отсутствуют

    Главный режиссер: Джордж Пан Косматос / George P. Cosmatos

    Актеры: Сильвестр Сталлоне, Бриджитт Нильсен, Рени Сантони, Эндрю Робинсон, Брайан Томпсон, Джон Херцфелд, Ли Гарлингтон, Арт ЛаФлёр, Марко Родригес, Росс Ст. Филлип

    Сюжет:
    Он — Кобра — штурмовой отряд полиции из одного человека, ему достаётся кровавая работёнка, за которую никто не хочет (или не осмеливается) взяться. Он выходит на след убийцы, за которым целая армия преступников-маньяков, стремящихся уничтожить свидетельницу их кровавой вакханалии. Но, к счастью, она попадает под защиту Кобры.

    Качество фильма: BDRip-AVC
    Тип видео: MKV
    Информация о видео кодек: H.264
    Информация о звуке кодек: AC3
    Информация о видео: 1024x576, 23.976fps, 1833 Kbps, 0.130 bit/pixel
    Информация о звуке: 48.0 KHz, 2 ch, 192 Kbps - Mногоголосый/Двухголосый/Oригинал

    MediaInfo
    Format : Matroska
    Format version : Version 2
    File size : 1.46 GiB
    Duration : 1h 26mn
    Overall bit rate : 2 408 Kbps
    Movie name : Cobra 1986 - Release for zyyx (pirat.ca)
    Encoded date : UTC 2012-04-29 08:13:54
    Writing application : mkvmerge v4.9.1 (;Ich will;) сборка от Jul 11 2011 23:53:15
    Writing library : libebml v1.2.1 libmatroska v1.1.1

    Video
    ID : 1
    Format : AVC
    Format/Info : Advanced Video Codec
    Format profile : High@L4.1
    Format settings, CABAC : Yes
    Format settings, ReFrames : 11 frames
    Muxing mode : Header stripping
    Codec ID : V_MPEG4/ISO/AVC
    Duration : 1h 26mn
    Bit rate : 1 833 Kbps
    Width : 1 024 pixels
    Height : 576 pixels
    Display aspect ratio : 16:9
    Frame rate : 23.976 fps
    Color space : YUV
    Chroma subsampling : 4:2:0
    Bit depth : 8 bits
    Scan type : Progressive
    Bits/(Pixel*Frame) : 0.130
    Stream size : 1.08 GiB (74%)
    Writing library : x264 core 116 r2044 392e762
    Default : Yes
    Forced : No

    Audio #1
    ID : 2
    Format : AC-3
    Format/Info : Audio Coding 3
    Mode extension : CM (complete main)
    Muxing mode : Header stripping
    Codec ID : A_AC3
    Duration : 1h 26mn
    Bit rate mode : Constant
    Bit rate : 192 Kbps
    Channel(s) : 2 channels
    Channel positions : Front: L R
    Sampling rate : 48.0 KHz
    Bit depth : 16 bits
    Compression mode : Lossy
    Stream size : 119 MiB (8%)
    Default : Yes
    Forced : No

    Audio #2
    ID : 3
    Format : AC-3
    Format/Info : Audio Coding 3
    Mode extension : CM (complete main)
    Muxing mode : Header stripping
    Codec ID : A_AC3
    Duration : 1h 26mn
    Bit rate mode : Constant
    Bit rate : 192 Kbps
    Channel(s) : 2 channels
    Channel positions : Front: L R
    Sampling rate : 48.0 KHz
    Bit depth : 16 bits
    Compression mode : Lossy
    Stream size : 119 MiB (8%)
    Default : No
    Forced : No

    Audio #3
    ID : 4
    Format : AC-3
    Format/Info : Audio Coding 3
    Mode extension : CM (complete main)
    Muxing mode : Header stripping
    Codec ID : A_AC3
    Duration : 1h 26mn
    Bit rate mode : Constant
    Bit rate : 192 Kbps
    Channel(s) : 2 channels
    Channel positions : Front: L R
    Sampling rate : 48.0 KHz
    Bit depth : 16 bits
    Compression mode : Lossy
    Stream size : 119 MiB (8%)
    Default : No
    Forced : No


    Размер скачиваемого торрента: 1.46 GB (1567835386 Bytes)

    Кобра / Cobra (1986) BDRip-AVC | Р, L2 скачать через торрент бесплатно
    загрузка...
    Рейтинг →
     (голосов: 1, оценка 4/5, голосовать можно 1 раз )

    Другие торренты по теме:

  • Кобра / Cobra (1986) BDRip-AVC | A
  • Спецотряд Кобра: 11 Дорожная полиция / Alarm fur Cobra 11 - Die Autobahnpolizei (1998) DVDRip
  • Зелёная кобра / Cobra Verde (1987) BDRip 1080p | L1
  • Зелёная кобра / Cobra Verde (1987) BDRip 720p | L1
  • Кобра / Cobra (1986) HDRip от Scarabey | D
  • Кобра. Антитеррор (2003) DVDRip
  • Черная кобра / Cobra nero / Black Cobra (1987) DVD-5 скачать через торрент бесплатно
  • Зеленая кобра / Cobra Verde (1987) BDRip от HQCLUB


    • Комментарии (0):

      Информация

      Информация

        Посетители, находящиеся в группе Гости, не могут оставлять комментарии в данной новости.

        ↓ Меню



        ↓ Опрос

        А Вы добавили сайт в закладки?
        Да
        Не


        Top 10 за месяц (Фильмы)