.
Авторизация | Регистрация
Хочешь лучшие торренты? Добавь свой email!
Добавить
» » Рок-н-рольщик / RocknRolla (2008) DVD9 | D, A торрент скачать бесплатно




    Рок-н-рольщик / RocknRolla (2008) DVD9 | D, A торрент скачать бесплатно

    Опубликовал: Админ | Дата: 27-02-2015, 11:10 | Просмотров: 328



    Детально о кино
    Русское название: Рок-н-рольщик
    Русское название в мировом прокате: RocknRolla
    Создали в: 2008
    Категория жанра: боевик, триллер, криминал
    Главный режиссер: Гай Ричи
    Актеры: Джерард Батлер, Марк Стронг, Том Харди, Идрис Эльба, Тоби Кеббелл, Том Уилкинсон, Тэнди Ньютон, Карел Роден, Джереми Пивен, Лудакрис

    Сюжет фильма:
    Фильм окунет вас в опасный коррупции и жизни криминальных отбросов современного Лондона, где недвижимость потеснила такого внушительного лидера торгового рынка, как наркотики, а самыми активными предпринимателями стали преступные группировки. Но каждому, кто захочет проворачивать там свои дела, будь то мелкая сошка Раз-два или русский теневой миллиардер Юрий Омович, придется сначала договориться с одним и тем же человеком — Ленни Коулом.




    Снималось в: США, Великобритания
    Киностудия: Dark Castle Entertainment, Toff Guy Films
    Время просмотра: 114 мин. / 01:54
    Перевод текста 1: профессиональный (полное дублирование)
    Перевод текста 2: авторский (Дмитрий Гоблин Пучков)

    Файл
    Кодек для видео: MPEG2
    Качество фильма: DVD9
    Информация о видео: PAL 16:9 (720x576) VBR 6004 Kbps, 25.00 fps
    Информация о звуке 1: Dolby AC3, 6 ch, 48.0 KHz, 384 Kbps
    Информация о звуке 2: Dolby AC3, 2 ch, 48.0 KHz, 192 Kbps
    Субтитры: русские, украинские, английские

    MediaInfo
    General
    Complete name : E:RocknRolla (2008) (L) DVD-9VIDEO_TSVTS_01_1.VOB
    Format : MPEG-PS
    File size : 1 024 MiB
    Duration : 19mn 5s
    Overall bit rate mode : Variable
    Overall bit rate : 7 497 Kbps

    Video
    ID : 224 (0xE0)
    Format : MPEG Video
    Format version : Version 2
    Format profile : Main@Main
    Format settings, BVOP :
    Format settings, Matrix : Default
    Format settings, GOP : M=3, N=15
    Duration : 19mn 5s
    Bit rate mode : Variable
    Bit rate : 6 004 Kbps
    Maximum bit rate : 7 500 Kbps
    Width : 720 pixels
    Height : 576 pixels
    Display aspect ratio : 16:9
    Frame rate : 25.000 fps
    Standard : PAL
    Color space : YUV
    Chroma subsampling : 4:2:0
    Bit depth : 8 bits
    Scan type : Interlaced
    Scan order : Top Field First
    Compression mode : Lossy
    Bits/(Pixel*Frame) : 0.579
    Time code of first frame : 00:59:58:00
    Time code source : Group of pictures t_head
    Stream size : 820 MiB (80%)

    Audio #1
    ID : 189 (0xBD)-128 (0x80)
    Format : AC-3
    Format/Info : Audio Coding 3
    Mode extension : CM (complete main)
    Format settings, Endianness : Big
    Muxing mode : DVD-Video
    Duration : 19mn 5s
    Bit rate mode : Constant
    Bit rate : 384 Kbps
    Channel count : 6 channels
    Channel positions : Front: L C R, Side: L R, LFE
    Sampling rate : 48.0 KHz
    Bit depth : 16 bits
    Compression mode : Lossy
    Delay relative to video : -80ms
    Stream size : 52.4 MiB (5%)

    Audio #2
    ID : 189 (0xBD)-129 (0x81)
    Format : AC-3
    Format/Info : Audio Coding 3
    Mode extension : CM (complete main)
    Format settings, Endianness : Big
    Muxing mode : DVD-Video
    Duration : 5s 344ms
    Bit rate mode : Constant
    Bit rate : 384 Kbps
    Channel count : 6 channels
    Channel positions : Front: L C R, Side: L R, LFE
    Sampling rate : 48.0 KHz
    Bit depth : 16 bits
    Compression mode : Lossy
    Stream size : 251 KiB (0%)

    Audio #3
    ID : 189 (0xBD)-130 (0x82)
    Format : AC-3
    Format/Info : Audio Coding 3
    Mode extension : CM (complete main)
    Format settings, Endianness : Big
    Muxing mode : DVD-Video
    Duration : 5s 344ms
    Bit rate mode : Constant
    Bit rate : 384 Kbps
    Channel count : 6 channels
    Channel positions : Front: L C R, Side: L R, LFE
    Sampling rate : 48.0 KHz
    Bit depth : 16 bits
    Compression mode : Lossy
    Stream size : 251 KiB (0%)

    Audio #4
    ID : 189 (0xBD)-131 (0x83)
    Format : AC-3
    Format/Info : Audio Coding 3
    Format profile : Dolby Digital
    Mode extension : CM (complete main)
    Format settings, Endianness : Big
    Muxing mode : DVD-Video
    Duration : 5s 408ms
    Bit rate mode : Constant
    Bit rate : 192 Kbps
    Channel count : 2 channels
    Channel positions : Front: L R
    Sampling rate : 48.0 KHz
    Bit depth : 16 bits
    Compression mode : Lossy
    Stream size : 127 KiB (0%)

    Text #1
    ID : 189 (0xBD)-32 (0x20)
    Format : RLE
    Format/Info : Run-length encoding
    Muxing mode : DVD-Video

    Text #2
    ID : 189 (0xBD)-33 (0x21)
    Format : RLE
    Format/Info : Run-length encoding
    Muxing mode : DVD-Video

    Text #3
    ID : 189 (0xBD)-34 (0x22)
    Format : RLE
    Format/Info : Run-length encoding
    Muxing mode : DVD-Video

    Menu

    Скриншоты для ознакомления

    Залил: carisha
    Размер скачиваемого торрента: 6.09 GB (6534146048 Bytes)

    Рок-н-рольщик / RocknRolla (2008) DVD9 | D, A торрент скачать бесплатно
    загрузка...
    Рейтинг →
     (голосов: 1, оценка 3/5, голосовать можно 1 раз )

    Другие торренты по теме:



      Комментарии (0):

      Информация

      Информация

        Посетители, находящиеся в группе Гости, не могут оставлять комментарии в данной новости.

        ↓ Меню



        ↓ Опрос

        А Вы добавили сайт в закладки?
        Да
        Не


        Top 10 за месяц (Фильмы)