.
Авторизация | Регистрация
» » Соло / Solo (1996) DVDRip от New-Team | P торрент скачать бесплатно




    Соло / Solo (1996) DVDRip от New-Team | P торрент скачать бесплатно

    Опубликовал: Админ | Дата: 27-02-2015, 11:10 | Просмотров: 316

    Part man. Part machine. Total weapon. Prepare to go Solo!



    Снималось в: Мексика, США / Kinema Films de Mexico, Orpheus Films, Triumph Enterprises Inc., Triumph Films, Van Peebles Films

    Категория жанра: фантастика, боевик, триллер
    Создали в: 1996
    Время просмотра: 01:30:02

    Перевод текста: Профессиональный (многоголосый закадровый)
    Субтитры подготовлены: русский, английский
    Оригинальная аудиодорожка: английский (отдельно)

    Главный режиссер: Норберто Барба / Norberto Barba

    Актеры: Марио Ван Пиблз, Бэрри Корбин, Уильям Сэдлер, Хайме Гомес, Демиан Бишир, Сейди Лопез, Абрахам Вердуско, Хоакин Гарридо, Уильям Уоллес, Эдриан Броуди...

    Сюжет: Он — универсальный солдат, способный сражаться и побеждать в любых условиях. У него нет семьи, нет друзей. Он похож на человека, но сделан из полимеров и микросхем. Он — Соло, машина c единственной программой — убивать.
    Но программа дает сбой. Соло начинает думать как человек. У него появляются человеческие чувства и друзья. Но жестокие военные, создавшие Соло, объявляют на него охоту. И Соло начинает беспощадную войну.



    Качество фильма: DVDRip / DVD5 R5
    Тип видео: AVI

    Информация о видео: 720x400 (16:9), 25.000 fps, XVID ~1923 kbps avg, 0.267 bit/pixel
    Информация о звуке 1: Русский 48 kHz, АС3, 6 ch, 384 kbps Constant
    Информация о звуке 2: Английский 48 kHz, АС3, 6 ch, 384 kbps Constant (отдельным файлом)
    Тип видео субтитров: SoftSub (srt)

    Раздача от:
    MediaInfo

    Общее
    Полное имя : Solo.1996.P.DVDRip_New-Team_by_avproh.avi
    Формат : AVI
    Формат/Информация : Audio Video Interleave
    Размер файла : 1,46 Гбайт
    Продолжительность : 1 ч. 30 м.
    Общий поток : 2316 Кбит/сек
    Программа кодирования : VirtualDubMod 1.5.10.3 | www.virtualdub-fr.org || (build 2550/release)
    Библиотека кодирования : VirtualDubMod build 2550/release

    Видео
    Идентификатор : 0
    Формат : MPEG-4 Visual
    Профиль формата : Advanced Simple@L5
    Параметр BVOP формата : 1
    Параметр QPel формата : Нет
    Параметр GMC формата : Без точки перехода
    Параметр матрицы формата : Выборочная
    Идентификатор кодека : XVID
    Идентификатор кодека/Подсказка : XviD
    Продолжительность : 1 ч. 30 м.
    Битрейт : 1923 Кбит/сек
    Ширина : 720 пикселей
    Высота : 400 пикселей
    Соотношение сторон : 16:9
    Частота кадров : 25,000 кадров/сек
    Цветовое пространство : YUV
    Субдискретизация насыщенности : 4:2:0
    Битовая глубина : 8 бит
    Тип развёртки : Прогрессивная
    Метод сжатия : С потерями
    Бит/(Пиксели*Кадры) : 0.267
    Размер потока : 1,21 Гбайт (83%)
    Библиотека кодирования : XviD 73

    Аудио
    Идентификатор : 1
    Формат : AC-3
    Формат/Информация : Audio Coding 3
    Расширение режима : CM (complete main)
    Параметр Endianness формата : Big
    Идентификатор кодека : 2000
    Продолжительность : 1 ч. 30 м.
    Вид битрейта : Постоянный
    Битрейт : 384 Кбит/сек
    Каналы : 6 каналов
    Расположение каналов : Front: L C R, Side: L R, LFE
    Частота : 48,0 КГц
    Битовая глубина : 16 бит
    Метод сжатия : С потерями
    Размер потока : 247 Мбайт (17%)
    Выравнивание : Разделение по промежуткам
    Продолжительность промежутка : 40 мс. (1,00 видеокадр)
    Время предзагрузки промежутка : 500 мс.

    Скриншоты для ознакомления:



    Сравнение:

    http://alt.rutor.org/torrent/95651/

    http://screenshotcomparison.com/comparison/58878

    Залил: avproh
    Размер скачиваемого торрента: 1.70 GB (1823867638 Bytes)

    Соло / Solo (1996) DVDRip от New-Team | P торрент скачать бесплатно
    загрузка...
    Рейтинг →
     (голосов: 1, оценка 4/5, голосовать можно 1 раз )

    Другие торренты по теме:

  • Дмитрий Соло - Нормальные песни (2012) MP3 торрент скачать бесплатно
  • Цирк дю Солей: Сказочный мир / Cirque du Soleil: Worlds Away (2013) DVDRip торрент скачать бесплатно
  • Соло на клавиатуре 9.0.5.57 (2013) PC | RePack portable by KpoJIuK торрент скачать бесплатно
  • Сурганова и Оркестр - Соль (2007) WavPack | VinylRip торрент скачать бесплатно
  • Соло для часов с боем (1974) SATRip торрент скачать бесплатно
  • Калифорнийское соло / California Solo (2012) DVDRip | L1 торрент скачать бесплатно
  • Цирк дю Солей: Кортео / Цирк солнца. Кортеж / Cirque du Soleil: Corteo (2006) BDRip-AVC от RG Jolly Roger торрент скачать бесплатно
  • VA - 50 Крутейших Гитарных Соло (2013) MP3 торрент скачать бесплатно


    • Комментарии (0):

      Информация

      Информация

        Посетители, находящиеся в группе Гости, не могут оставлять комментарии в данной новости.

        ↓ Меню



        ↓ Опрос

        А Вы добавили сайт в закладки?
        Да
        Не


        Top 10 за неделю (Фильмы)