.
Авторизация | Регистрация
» » Снайперы: Любовь под прицелом (2012) DVDRip от New-Team | лицензия торрент скачать бесплатно




    Снайперы: Любовь под прицелом (2012) DVDRip от New-Team | лицензия торрент скачать бесплатно

    Опубликовал: Админ | Дата: 27-02-2015, 11:10 | Просмотров: 298



    Снималось в: Россия / Кинокомпания Леман, Марс Медиа Энтертейнмент
    Категория жанра: драма, военный
    Создали в: 2012
    Время просмотра: 8 x ~00:50:00

    Перевод текста: не требуется
    Субтитры подготовлены: нет
    Оригинальная аудиодорожка: русский

    Главный режиссер: Зиновий Ройзман

    Актеры: Татьяна Арнтгольц, Вольфганг Черны, Александр Устюгов, Андреас Хельги Шмид, Юрий Назаров, Дмитрий Быковский-Ромашов, Валерия Ланская, Светлана Устинова, Сергей Марин, Светлана Смирнова-Кацагаджиева...

    Сюжет: Познакомились советская десятиклассница Катя со своим сверстником немцем Александром. И возникло между ними чувство, помешать которому, казалось, ничто не могло. Шел 39-й год, был подписан известный пакт о ненападении между Германией и Россией. А потом началась война... Наши герои встречаются в 43-ем по разные стороны баррикад в Днепропетровске. Немцы заминировали там гидроэлектростанцию. Задачей советских воинов было ее разминировать. И с той, и с другой стороны дежурили снайперы - нашу группу возглавляла Катя, немецкую - Александр. Что же случилось дальше? Победит ли Любовь?..



    Качество фильма: DVDRip (2 x DVD9 R5)
    Тип видео: AVI

    Информация о видео: 720x400 (16:9), 25.000 fps, XViD ~ 2000 kbps avg, 0.278 bit/pixel
    Информация о звуке: 48 kHz, АС3 6 ch, 448 kbps, русский

    Раздача от:
    MediaInfo

    Общее
    Полное имя : Snaypery.lubov.pod.pritselom.2012.O.DVDRip_New-Team_by_avproh1.avi
    Формат : AVI
    Формат/Информация : Audio Video Interleave
    Размер файла : 884 Мбайт
    Продолжительность : 50 м.
    Общий поток : 2457 Кбит/сек
    Программа кодирования : VirtualDubMod 1.5.10.3 | www.virtualdub-fr.org || (build 2550/release)
    Библиотека кодирования : VirtualDubMod build 2550/release

    Видео
    Идентификатор : 0
    Формат : MPEG-4 Visual
    Профиль формата : Advanced Simple@L5
    Параметр BVOP формата : 1
    Параметр QPel формата : Нет
    Параметр GMC формата : Без точки перехода
    Параметр матрицы формата : Выборочная
    Идентификатор кодека : XVID
    Идентификатор кодека/Подсказка : XviD
    Продолжительность : 50 м.
    Битрейт : 2000 Кбит/сек
    Ширина : 720 пикселей
    Высота : 400 пикселей
    Соотношение сторон : 16:9
    Частота кадров : 25,000 кадров/сек
    Цветовое пространство : YUV
    Субдискретизация насыщенности : 4:2:0
    Битовая глубина : 8 бит
    Тип развёртки : Прогрессивная
    Метод сжатия : С потерями
    Бит/(Пиксели*Кадры) : 0.278
    Размер потока : 720 Мбайт (81%)
    Библиотека кодирования : XviD 73

    Аудио
    Идентификатор : 1
    Формат : AC-3
    Формат/Информация : Audio Coding 3
    Расширение режима : CM (complete main)
    Параметр Endianness формата : Big
    Идентификатор кодека : 2000
    Продолжительность : 50 м.
    Вид битрейта : Постоянный
    Битрейт : 448 Кбит/сек
    Каналы : 6 каналов
    Расположение каналов : Front: L C R, Side: L R, LFE
    Частота : 48,0 КГц
    Битовая глубина : 16 бит
    Метод сжатия : С потерями
    Размер потока : 161 Мбайт (18%)
    Выравнивание : Разделение по промежуткам
    Продолжительность промежутка : 40 мс. (1,00 видеокадр)
    Время предзагрузки промежутка : 500 мс.

    Скриншоты для ознакомления:



    Сравнение с SATRip:

    http://alt.rutor.org/torrent/242563

    http://screenshotcomparison.com/comparison/58682

    Залил: avproh
    Размер скачиваемого торрента: 6.87 GB (7377702912 Bytes)

    Снайперы: Любовь под прицелом (2012) DVDRip от New-Team | лицензия торрент скачать бесплатно
    загрузка...
    Рейтинг →
     (голосов: 1, оценка 5/5, голосовать можно 1 раз )

    Другие торренты по теме:

  • Снайперы: Любовь под прицелом (2012) DVDRip-AVC от New-Team | лицензия торрент скачать бесплатно
  • Снайперы: Любовь под прицелом (2012) 2xDVD9 R5 от New-Team | лицензия торрент скачать бесплатно


    • Комментарии (0):

      Информация

      Информация

        Посетители, находящиеся в группе Гости, не могут оставлять комментарии в данной новости.

        ↓ Меню



        ↓ Опрос

        А Вы добавили сайт в закладки?
        Да
        Не


        Top 10 за неделю (Фильмы)