.
Авторизация | Регистрация
» » Смерть ей к лицу / Death Becomes Her (1992) BDRemux 1080p от MediaClub | P, A скачать через торрент бесплатно




    Смерть ей к лицу / Death Becomes Her (1992) BDRemux 1080p от MediaClub | P, A скачать через торрент бесплатно

    Опубликовал: Админ | Дата: 27-02-2015, 11:10 | Просмотров: 340



    Детально о кино
    Русское название: Смерть ей к лицу
    Русское название в мировом прокате: Death Becomes Her
    Создали в: 1992
    Категория жанра: Комедия, фантастика
    Главный режиссер: Роберт Земекис
    Актеры: Мэрил Стрип, Голди Хоун, Брюс Уиллис, Изабелла Росселлини, Иэн Огилви, Адам Сторке, Нэнси Фиш, Алайна Рид Холл, Мишель Джонсон, Мэри Эллен Трейнор, Дебра Джо Рапп

    Сюжет: Интересно, а на что вы были бы готовы пойти, если бы лишились в очередной раз возможности выйти замуж по вине... лучшей подруги! И не важно, что в итоге мужчина сделал выбор, важно - что этому выбору способствовало! Но месть, как известно, блюдо которое подают холодным! Прошло время... и время пришло! Что за способ найдут бывшие подруги, чтобы наконец решить свой давний спор - кто с кем останется до тех пор, пока смерть не разлучит нас?




    Снималось в: США
    Киностудия: Universal Pictures
    Время просмотра: 01:43:28
    Перевод текста: Профессиональный многоголосый, авторский одноголосый

    Файл
    Качество фильма: Blu-ray Remux 1080p
    Информация о видео: MPEG-4 AVC, 24943 Кбит/с, 1920x1080, 23.976 кадр/с
    Информация о звуке #1: Русский (AC3, 2 ch, 192 Кбит/с) / Профессиональный многоголосый (НТВ )
    Информация о звуке #2: Русский (AC3, 2 ch, 192 Кбит/с) / Профессиональный многоголосый (Неизвестен)
    Информация о звуке #3: Русский (AC3, 2 ch, 192 Кбит/с) / Профессиональный многоголосый (ОРТ)
    Информация о звуке #4: Русский (AC3, 2 ch, 192 Кбит/с) / Профессиональный многоголосый (Премьер-Видео Фильм)
    Информация о звуке #5: Русский (AC3, 2 ch, 192 Кбит/с) / Авторский одноголосый (А. Михалёв)
    Информация о звуке #6: Английский (DTS-HD MA, 2 ch, 1802 Кбит/с)
    Субтитры: Русские, английские

    Семпл

    Скриншоты для ознакомления


    MI
    Общее
    Уникальный идентификатор : 201465066568241676753536390772160011982 (0x9790C2AC88F2A5B3AE00F375C8091ECE)
    Полное имя : D:Mои раздачиDeath.Becomes.Her.1992.BDRemux.(1080p)-MediaClub.mkv
    Формат : Matroska
    Версия формата : Version 4 / Version 2
    Размер файла : 20,0 Гбайт
    Продолжительность : 1 ч. 43 м.
    Режим общего битрейта : Переменный
    Общий поток : 27,7 Мбит/сек
    Название фильма : -=MediaClub-kaspr=-
    Дата кодирования : UTC 2014-01-24 05:45:35
    Программа кодирования : mkvmerge v6.1.0 (;Old Devil;) built on Mar 4 2013 09:10:42
    Библиотека кодирования : libebml v1.3.0 libmatroska v1.4.0

    Видео
    Идентификатор : 1
    Формат : AVC
    Формат/Информация : Advanced Video Codec
    Профиль формата : High@L4.1
    Параметр CABAC формата : Да
    Параметр ReFrames формата : 4 кадра
    Идентификатор кодека : V_MPEG4/ISO/AVC
    Продолжительность : 1 ч. 43 м.
    Вид битрейта : Переменный
    Максимальный битрейт : 35,0 Мбит/сек
    Ширина : 1920 пикселей
    Высота : 1080 пикселей
    Соотношение сторон : 16:9
    Режим частоты кадров : Постоянный
    Частота кадров : 23,976 кадра/сек
    Стандарт вещания : NTSC
    Цветовое пространство : YUV
    Субдискретизация насыщенности : 4:2:0
    Битовая глубина : 8 бит
    Тип развёртки : Прогрессивная
    Заголовок : -=MediaClub-kaspr=-
    Default : Да
    Forced : Нет
    Основные цвета : BT.709
    Характеристики трансфера : BT.709
    Коэффициенты матрицы : BT.709

    Аудио #1
    Идентификатор : 2
    Формат : AC-3
    Формат/Информация : Audio Coding 3
    Расширение режима : CM (complete main)
    Параметр Endianness формата : Big
    Идентификатор кодека : A_AC3
    Продолжительность : 1 ч. 43 м.
    Вид битрейта : Постоянный
    Битрейт : 192 Кбит/сек
    Каналы : 2 канала
    Расположение каналов : Front: L R
    Частота : 48,0 КГц
    Битовая глубина : 16 бит
    Метод сжатия : С потерями
    Размер потока : 142 Мбайт (1%)
    Заголовок : НТВ
    Язык : Russian
    Default : Да
    Forced : Нет

    Аудио #2
    Идентификатор : 3
    Формат : AC-3
    Формат/Информация : Audio Coding 3
    Расширение режима : CM (complete main)
    Параметр Endianness формата : Big
    Идентификатор кодека : A_AC3
    Продолжительность : 1 ч. 43 м.
    Вид битрейта : Постоянный
    Битрейт : 192 Кбит/сек
    Каналы : 2 канала
    Расположение каналов : Front: L R
    Частота : 48,0 КГц
    Битовая глубина : 16 бит
    Метод сжатия : С потерями
    Размер потока : 142 Мбайт (1%)
    Заголовок : Неизвестен
    Язык : Russian
    Default : Нет
    Forced : Нет

    Аудио #3
    Идентификатор : 4
    Формат : AC-3
    Формат/Информация : Audio Coding 3
    Расширение режима : CM (complete main)
    Параметр Endianness формата : Big
    Идентификатор кодека : A_AC3
    Продолжительность : 1 ч. 43 м.
    Вид битрейта : Постоянный
    Битрейт : 192 Кбит/сек
    Каналы : 2 канала
    Расположение каналов : Front: L R
    Частота : 48,0 КГц
    Битовая глубина : 16 бит
    Метод сжатия : С потерями
    Размер потока : 142 Мбайт (1%)
    Заголовок : ОРТ
    Язык : Russian
    Default : Нет
    Forced : Нет

    Аудио #4
    Идентификатор : 5
    Формат : AC-3
    Формат/Информация : Audio Coding 3
    Расширение режима : CM (complete main)
    Параметр Endianness формата : Big
    Идентификатор кодека : A_AC3
    Продолжительность : 1 ч. 43 м.
    Вид битрейта : Постоянный
    Битрейт : 192 Кбит/сек
    Каналы : 2 канала
    Расположение каналов : Front: L R
    Частота : 48,0 КГц
    Битовая глубина : 16 бит
    Метод сжатия : С потерями
    Размер потока : 142 Мбайт (1%)
    Заголовок : Премьер-Видео Фильм
    Язык : Russian
    Default : Нет
    Forced : Нет

    Аудио #5
    Идентификатор : 6
    Формат : AC-3
    Формат/Информация : Audio Coding 3
    Расширение режима : CM (complete main)
    Параметр Endianness формата : Big
    Идентификатор кодека : A_AC3
    Продолжительность : 1 ч. 43 м.
    Вид битрейта : Постоянный
    Битрейт : 192 Кбит/сек
    Каналы : 2 канала
    Расположение каналов : Front: L R
    Частота : 48,0 КГц
    Битовая глубина : 16 бит
    Метод сжатия : С потерями
    Размер потока : 142 Мбайт (1%)
    Заголовок : Михалёв
    Язык : Russian
    Default : Нет
    Forced : Нет

    Аудио #6
    Идентификатор : 7
    Формат : DTS
    Формат/Информация : Digital Theater Systems
    Профиль формата : MA / Core
    Режим : 16
    Параметр Endianness формата : Big
    Идентификатор кодека : A_DTS
    Продолжительность : 1 ч. 43 м.
    Вид битрейта : Переменный
    Битрейт : Неизвестно / 1509 Кбит/сек
    Каналы : 2 канала
    Расположение каналов : Front: L R
    Частота : 48,0 КГц
    Битовая глубина : 16 бит
    Метод сжатия : Без потерь / Lossy
    Язык : English
    Default : Нет
    Forced : Нет

    Текст #1
    Идентификатор : 8
    Формат : UTF-8
    Идентификатор кодека : S_TEXT/UTF8
    Идентификатор кодека/Информация : UTF-8 Plain Text
    Язык : Russian
    Default : Нет
    Forced : Нет

    Текст #2
    Идентификатор : 9
    Формат : UTF-8
    Идентификатор кодека : S_TEXT/UTF8
    Идентификатор кодека/Информация : UTF-8 Plain Text
    Язык : English
    Default : Нет
    Forced : Нет

    Меню
    00:00:00.000 : en:Chapter 01
    00:05:04.512 : en:Chapter 02
    00:09:01.540 : en:Chapter 03
    00:12:35.379 : en:Chapter 04
    00:20:40.739 : en:Chapter 05
    00:26:46.771 : en:Chapter 06
    00:30:20.109 : en:Chapter 07
    00:47:09.243 : en:Chapter 08
    00:55:55.268 : en:Chapter 09
    01:05:51.489 : en:Chapter 10
    01:09:55.858 : en:Chapter 11
    01:15:40.953 : en:Chapter 12
    01:25:01.888 : en:Chapter 13
    01:32:54.402 : en:Chapter 14
    01:36:13.225 : en:Chapter 15
    01:37:35.599 : en:Chapter 16


    Релиз: |
    Залил: kaspr
    Размер скачиваемого торрента: 20.03 GB (21503157307 Bytes)

    Смерть ей к лицу / Death Becomes Her (1992) BDRemux 1080p от MediaClub | P, A скачать через торрент бесплатно
    загрузка...
    Рейтинг →
     (голосов: 1, оценка 3/5, голосовать можно 1 раз )

    Другие торренты по теме:



      Комментарии (0):

      Информация

      Информация

        Посетители, находящиеся в группе Гости, не могут оставлять комментарии в данной новости.

        ↓ Меню



        ↓ Опрос

        А Вы добавили сайт в закладки?
        Да
        Не


        Top 10 за неделю (Фильмы)