.
Авторизация | Регистрация
Хочешь лучшие торренты? Добавь свой email!
Добавить
» » Бешеные псы / Mad Dogs (2013) HDTV 1080i от CasStudio скачать через торрент бесплатно




    Бешеные псы / Mad Dogs (2013) HDTV 1080i от CasStudio скачать через торрент бесплатно

    Опубликовал: Админ | Дата: 27-02-2015, 11:10 | Просмотров: 319



    Детально о кино
    Русское название: Бешеные псы
    Русское название в мировом прокате: Mad Dogs
    Создали в: 2013
    Категория жанра: Детектив, криминал, драма, комедия, триллер
    Главный режиссер: Адриан Шерголд, Джеймс Хоэс
    Актеры: Джон Симм, Марк Уоррен, Макс Бисли, Филип Гленистер, Бен Чаплин, Мария Ботто, Томаш Поцци, Элуиз Джозеф, Тим Вудворд, Дэвид Уорнер, Летисия Долера, Джэми МакЛахлан, Феликс Куберо

    Сюжет фильма:
    Четверо – Квинн, Бакс, Рик и Вуди. И пятый – их гостеприимный, неприлично разбогатевший друг детства, Алви. Майорка, жаркое лето, шикарная вилла и неограниченное количество бабок на развлечения. Идиллическое воссоединение друзей? Приятные полуночные беседы за стаканчиком местного вина? Отрыв по полной на острове удовольствий? А мёртвого козла в бассейн не хотите? Да и гостеприимный хозяин на глазах превращается в такого же козла, только живого… Или погодите…

    MI
    Общее
    Идентификатор : 1 (0x1)
    Полное имя : Mad Dogs Season 4 1080i CasStudioMad.Dogs.s04e01.rus.eng.1080i.CasStudio.ts
    Формат : MPEG-TS
    Размер файла : 2,81 Гбайт
    Продолжительность : 44 м.
    Режим общего битрейта : Переменный
    Общий поток : 9048 Кбит/сек
    Максимальный общий битрейт : 35,5 Мбит/сек

    Видео
    Идентификатор : 4113 (0x1011)
    Идентификатор меню : 1 (0x1)
    Формат : AVC
    Формат/Информация : Advanced Video Codec
    Профиль формата : Main@L4.0
    Параметр CABAC формата : Да
    Параметр ReFrames формата : 4 кадра
    Параметр GOP формата : M=4, N=12
    Идентификатор кодека : 27
    Продолжительность : 44 м.
    Вид битрейта : Переменный
    Битрейт : 7825 Кбит/сек
    Максимальный битрейт : 40,0 Мбит/сек
    Ширина : 1920 пикселей
    Высота : 1080 пикселей
    Соотношение сторон : 16:9
    Частота кадров : 25,000 кадров/сек
    Цветовое пространство : YUV
    Субдискретизация насыщенности : 4:2:0
    Битовая глубина : 8 бит
    Тип развёртки : Чересстрочная
    Порядок развёртки : Верхнее поле первое
    Бит/(Пиксели*Кадры) : 0.151
    Размер потока : 2,43 Гбайт (86%)

    Аудио #1
    Идентификатор : 4352 (0x1100)
    Идентификатор меню : 1 (0x1)
    Формат : AC-3
    Формат/Информация : Audio Coding 3
    Расширение режима : CM (complete main)
    Параметр Endianness формата : Big
    Идентификатор кодека : 129
    Продолжительность : 44 м.
    Вид битрейта : Постоянный
    Битрейт : 384 Кбит/сек
    Каналы : 6 каналов
    Расположение каналов : Front: L C R, Side: L R, LFE
    Частота : 48,0 КГц
    Битовая глубина : 16 бит
    Метод сжатия : С потерями
    Размер потока : 122 Мбайт (4%)
    Язык : Russian

    Аудио #2
    Идентификатор : 4353 (0x1101)
    Идентификатор меню : 1 (0x1)
    Формат : AC-3
    Формат/Информация : Audio Coding 3
    Расширение режима : CM (complete main)
    Параметр Endianness формата : Big
    Идентификатор кодека : 129
    Продолжительность : 44 м.
    Вид битрейта : Постоянный
    Битрейт : 384 Кбит/сек
    Каналы : 6 каналов
    Расположение каналов : Front: L C R, Side: L R, LFE
    Частота : 48,0 КГц
    Битовая глубина : 16 бит
    Метод сжатия : С потерями
    Размер потока : 122 Мбайт (4%)
    Язык : English




    Снималось в: Великобритания
    Время просмотра: ~ 00:44:00
    Перевод текста: Профессиональный двухголосый закадровый (Кубик в Кубе)

    Файл
    Кодек для видео: AVC
    Качество фильма: HDTV 1080i
    Информация о видео: ~ 7801 Кбит/с, 1920x1080, 25 кадр/с
    Информация о звуке: Русский, английский (AC3, 6 ch, 384 Кбит/с)



    Озвучка: Кубик в Кубе
    Перевод текста: TrueTranslate
    Исходник: BS666
    Работа со звуком: ЛП

    Скриншоты для ознакомления


    Размер скачиваемого торрента: 2.81 GB (3014904300 Bytes)

    Бешеные псы / Mad Dogs (2013) HDTV 1080i от CasStudio скачать через торрент бесплатно
    загрузка...
    Рейтинг →
     (голосов: 1, оценка 4/5, голосовать можно 1 раз )

    Другие торренты по теме:

  • Прощайте Псы / Бешеные Псы / Reservoir Dogs (1992) BDRip от HQ-ViDEO | A
  • Бешеные псы / Reservoir Dogs (1992) BDRip 720p
  • OST - Бешеные псы / Reservoir Dogs (1992) MP3
  • Бешеные псы / Mad Dogs (2013) HDTVRip | Кубик в Кубе
  • Бешеные псы / Reservoir Dogs (1992) BDRip от HQCLUB
  • Бешеные псы / Mad Dogs (2013) HDTVRip от CasStudio скачать через торрент бесплатно
  • Бешеные псы / Mad Dogs (2013) HDTVRip 720p от CasStudio скачать через торрент бесплатно
  • Бешеные псы / Reservoir Dogs (1992) BDRip-AVC от 0ptimus | P, P2, P1, A скачать через торрент бесплатно


    • Комментарии (0):

      Информация

      Информация

        Посетители, находящиеся в группе Гости, не могут оставлять комментарии в данной новости.

        ↓ Меню



        ↓ Опрос

        А Вы добавили сайт в закладки?
        Да
        Не


        Top 10 за месяц (Фильмы)