.
Авторизация | Регистрация
» » Бешеные псы / Mad Dogs (2013) HDTVRip от CasStudio скачать через торрент бесплатно




    Бешеные псы / Mad Dogs (2013) HDTVRip от CasStudio скачать через торрент бесплатно

    Опубликовал: Админ | Дата: 27-02-2015, 11:10 | Просмотров: 309



    Детально о кино
    Русское название: Бешеные псы
    Русское название в мировом прокате: Mad Dogs
    Создали в: 2013
    Категория жанра: Детектив, криминал, драма, комедия, триллер
    Главный режиссер: Адриан Шерголд, Джеймс Хоэс
    Актеры: Джон Симм, Марк Уоррен, Макс Бисли, Филип Гленистер, Бен Чаплин, Мария Ботто, Томаш Поцци, Элуиз Джозеф, Тим Вудворд, Дэвид Уорнер, Летисия Долера, Джэми МакЛахлан, Феликс Куберо

    Сюжет фильма:
    Четверо – Квинн, Бакс, Рик и Вуди. И пятый – их гостеприимный, неприлично разбогатевший друг детства, Алви. Майорка, жаркое лето, шикарная вилла и неограниченное количество бабок на развлечения. Идиллическое воссоединение друзей? Приятные полуночные беседы за стаканчиком местного вина? Отрыв по полной на острове удовольствий? А мёртвого козла в бассейн не хотите? Да и гостеприимный хозяин на глазах превращается в такого же козла, только живого… Или погодите…

    MI
    Полное имя : Mad Dogs Season 4Mad.Dogs.s04e01.rus.eng.CasStudio.avi
    Формат : AVI
    Формат/Информация : Audio Video Interleave
    Размер файла : 884 Мбайт
    Продолжительность : 44 м.
    Общий поток : 2782 Кбит/сек
    Программа кодирования : VirtualDubMod 1.5.10.2 (build 2540/release)
    Библиотека кодирования : VirtualDubMod build 2540/release

    Видео
    Идентификатор : 0
    Формат : MPEG-4 Visual
    Профиль формата : Advanced Simple@L5
    Параметр BVOP формата : 1
    Параметр QPel формата : Нет
    Параметр GMC формата : Без точки перехода
    Параметр матрицы формата : Default (MPEG)
    Идентификатор кодека : XVID
    Идентификатор кодека/Подсказка : XviD
    Продолжительность : 44 м.
    Битрейт : 2000 Кбит/сек
    Ширина : 720 пикселей
    Высота : 400 пикселей
    Соотношение сторон : 16:9
    Частота кадров : 25,000 кадров/сек
    Цветовое пространство : YUV
    Субдискретизация насыщенности : 4:2:0
    Битовая глубина : 8 бит
    Тип развёртки : Прогрессивная
    Метод сжатия : С потерями
    Бит/(Пиксели*Кадры) : 0.278
    Размер потока : 636 Мбайт (72%)
    Библиотека кодирования : XviD 65

    Аудио #1
    Идентификатор : 1
    Формат : AC-3
    Формат/Информация : Audio Coding 3
    Расширение режима : CM (complete main)
    Параметр Endianness формата : Big
    Идентификатор кодека : 2000
    Продолжительность : 44 м.
    Вид битрейта : Постоянный
    Битрейт : 384 Кбит/сек
    Каналы : 6 каналов
    Расположение каналов : Front: L C R, Side: L R, LFE
    Частота : 48,0 КГц
    Битовая глубина : 16 бит
    Метод сжатия : С потерями
    Размер потока : 122 Мбайт (14%)
    Выравнивание : Разделение по промежуткам
    Продолжительность промежутка : 40 мс. (1,00 видеокадр)
    Время предзагрузки промежутка : 500 мс.

    Аудио #2
    Идентификатор : 2
    Формат : AC-3
    Формат/Информация : Audio Coding 3
    Расширение режима : CM (complete main)
    Параметр Endianness формата : Big
    Идентификатор кодека : 2000
    Продолжительность : 44 м.
    Вид битрейта : Постоянный
    Битрейт : 384 Кбит/сек
    Каналы : 6 каналов
    Расположение каналов : Front: L C R, Side: L R, LFE
    Частота : 48,0 КГц
    Битовая глубина : 16 бит
    Метод сжатия : С потерями
    Размер потока : 122 Мбайт (14%)
    Выравнивание : Разделение по промежуткам
    Продолжительность промежутка : 40 мс. (1,00 видеокадр)
    Время предзагрузки промежутка : 500 мс.




    Снималось в: Великобритания
    Время просмотра: ~ 00:44:00
    Перевод текста: Профессиональный двухголосый закадровый (Кубик в Кубе)

    Файл
    Кодек для видео: XviD
    Качество фильма: HDTVRip
    Информация о видео: ~ 2000 Кбит/с, 720x400, 23.976 кадр/с
    Информация о звуке: Русский, английский (AC3, 6 ch, 384 Кбит/с)

    Скриншоты для ознакомления


    Размер скачиваемого торрента: 884.18 MB (927127552 Bytes)

    Бешеные псы / Mad Dogs (2013) HDTVRip от CasStudio скачать через торрент бесплатно
    загрузка...
    Рейтинг →
     (голосов: 1, оценка 4/5, голосовать можно 1 раз )

    Другие торренты по теме:



      Комментарии (0):

      Информация

      Информация

        Посетители, находящиеся в группе Гости, не могут оставлять комментарии в данной новости.

        ↓ Меню



        ↓ Опрос

        А Вы добавили сайт в закладки?
        Да
        Не


        Top 10 за неделю (Фильмы)